<?xml version="1.0" standalone="no"?>
<!DOCTYPE svg PUBLIC "-//W3C//DTD SVG 1.1//EN" "http://www.w3.org/Graphics/SVG/1.1/DTD/svg11.dtd" >
<svg xmlns="http://www.w3.org/2000/svg">
<metadata>
This is a custom SVG webfont generated by Font Squirrel.
Copyright   : C2010 House IndustriesBrand Design Co Inc All Rights Reserved
Designer    : Erik van Blokland
Foundry     : House Industries
Foundry URL : httphouseindustriescom
</metadata>
<defs>
<font id="EamesCenturyModernBold" horiz-adv-x="1228" >
<font-face units-per-em="2048" ascent="1679" descent="-369" />
<missing-glyph horiz-adv-x="458" />
<glyph unicode=" "  horiz-adv-x="458" />
<glyph unicode="&#x09;" horiz-adv-x="458" />
<glyph unicode="&#xa0;" horiz-adv-x="458" />
<glyph unicode="!" horiz-adv-x="567" d="M99 1347q50 108 182 107q129 0 181 -107q24 -49 23 -109q0 -73 -34 -163q-8 -18 -33 -80l-30 -73q-5 -12 -22.5 -61.5t-20.5 -69t-13 -64.5t-13 -80l-5 -85q-3 -50 -3 -109q0 -43 -30.5 -43t-30.5 43q0 90 -5 155.5t-21.5 134t-26 98t-41.5 115.5l-45 119q-34 90 -34 164 q-1 60 22 108zM111 135q0 76 49 123t125 47q82 0 130 -48t48 -126q0 -76 -48 -122t-130 -46q-78 0 -126 46t-48 126z" />
<glyph unicode="&#x22;" horiz-adv-x="745" d="M131 1386q20 59 88 60q63 0 86 -60q8 -21 8 -46q0 -45 -26 -103q-43 -96 -44 -322q0 -20 1 -41q0 -31 -27 -30q-25 0 -24 30q0 258 -46 363q-24 58 -23 103q0 25 7 46zM438 1386q20 59 88 60q63 0 86 -60q8 -21 8 -46q0 -45 -26 -103q-43 -96 -43 -322v-41q0 -31 -27 -30 q-25 0 -24 30q0 258 -45 363q-24 58 -24 103q0 25 7 46z" />
<glyph unicode="#" horiz-adv-x="1212" d="M94 446q14 47 19 82q127 -4 245 -4l66 346q-205 0 -277 -2q4 14 17 84q139 -4 274 -4q51 274 80 461h74q-51 -205 -100 -461h331q51 301 74 461h74q-29 -127 -94 -461q111 0 237 4q-10 -41 -16 -84q-63 2 -238 2q-43 -219 -63 -346q115 0 245 4l-16 -82q-63 2 -244 3 q-53 -303 -71 -449h-70q47 219 90 449h-336q-49 -274 -73 -449h-70l92 449q-184 -1 -250 -3zM410 524h335q43 221 64 346h-334z" />
<glyph unicode="$" horiz-adv-x="1208" d="M97 451q38 39 104 38q63 0 99 -30.5t36 -87.5q0 -45 -30 -75t-81 -36q66 -74 230 -96l10 383q-188 37 -283.5 141.5t-95.5 261.5q0 160 97.5 274.5t269.5 151.5l-7 236h103l-6 -223h112l-6 223h103l-9 -234q160 -25 248 -99q86 -73 86 -178v-5q-2 -63 -37.5 -101.5 t-93.5 -38.5q-63 0 -98 30t-35 83q0 43 26.5 72.5t73.5 36.5q-66 59 -172 79l-10 -346q229 -31 329.5 -137t100.5 -285q0 -180 -107.5 -299.5t-308.5 -152.5l7 -240h-103l6 230l-112 -2l6 -228h-103l7 236q-184 25 -291 109q-104 83 -105 202q0 66 40 107zM305 1085 q0 -109 160 -141l-10 305q-150 -45 -150 -164zM528 539l11 -383l118 2l11 366q-23 4 -70 8zM530 932l138 -12l-11 348q-24 2 -47 1l-71 -3zM731 516l10 -346q94 20 145.5 68.5t51.5 114t-48 104.5t-159 59z" />
<glyph unicode="%" d="M100 1133q0 170 82 248.5t203 78.5q285 0 285 -327q0 -170 -82 -248t-203 -78q-285 0 -285 326zM188 174.5q0 18.5 18.5 18.5t18.5 -18.5t-18.5 -18.5t-18.5 18.5zM264 285q0 10 8.5 19t20.5 9t20.5 -9t8.5 -19q0 -31 -29 -31t-29 31zM295 1133q0 -147 19.5 -193.5 t70.5 -46.5q47 0 67.5 48t20.5 192q0 145 -20.5 193t-67.5 48t-68.5 -50t-21.5 -191zM338 393.5q0 16.5 12 28.5t28.5 12t29 -12t12.5 -28.5t-12.5 -29t-29 -12.5t-28.5 12.5t-12 29zM416 504q0 18 14 32.5t34.5 14.5t35 -14.5t14.5 -32.5q0 -20 -14.5 -34.5t-35 -14.5 t-34.5 14.5t-14 34.5zM498 612.5q0 22.5 15 38t37.5 15.5t38 -15.5t15.5 -38t-15.5 -38t-38 -15.5t-37.5 15.5t-15 38zM573 266q0 170 82 249t201 79q287 0 287 -328q0 -168 -82 -246.5t-205 -78.5q-283 -1 -283 325zM582 722.5q0 22.5 16 38t38.5 15.5t39 -15.5t16.5 -38 t-16.5 -38.5t-39 -16t-38.5 16t-16 38.5zM670 831.5q0 20.5 15 37t37.5 16.5t38 -16.5t15.5 -37t-15.5 -37t-38 -16.5t-37.5 16.5t-15 37zM760 942q0 18 14 32.5t34.5 14.5t35 -14t14.5 -33q0 -20 -14.5 -34.5t-35 -14.5t-34.5 14.5t-14 34.5zM768 266q0 -147 19.5 -193 t68.5 -46t69.5 48t20.5 191q0 145 -20.5 193.5t-69.5 48.5q-45 0 -66.5 -50.5t-21.5 -191.5zM854 1050.5q0 16.5 12.5 29t28.5 12.5t28.5 -12.5t12.5 -29t-12.5 -28.5t-28.5 -12t-28.5 12t-12.5 28.5zM952 1161q0 10 8.5 19.5t20.5 9.5t20.5 -9.5t8.5 -19.5q0 -31 -29 -31 t-29 31zM1049 1269.5q0 18.5 18 18.5t18 -18.5t-18 -18.5t-18 18.5z" />
<glyph unicode="&#x26;" horiz-adv-x="1619" d="M76 336q0 154 99 256t245 139q-80 170 -80 305q0 397 420 398q170 0 257 -88.5t87 -231.5t-79 -252.5t-204 -167.5q123 -195 242 -354q86 103 86 203q0 87 -78 88h-47v123q160 -4 250 -4l250 4v-123h-72q-55 0 -82 -23.5t-43 -70.5q-57 -184 -186 -287q80 -82 166 -82 q68 0 108.5 42t46.5 114l111 -17q-4 -158 -90 -247t-266 -89q-213 0 -347 105q-135 -115 -358 -115q-201 0 -318.5 97.5t-117.5 277.5zM391 428q0 -150 109 -232q68 -52 161 -52q55 0 119 18q-133 150 -295 442q-94 -65 -94 -176zM674 1104q0 -147 90 -313q119 86 119 315 q0 166 -103 166q-57 0 -81.5 -41t-24.5 -127z" />
<glyph unicode="'" horiz-adv-x="440" d="M133 1386q20 59 88 60q63 0 86 -60q8 -21 8 -46q0 -45 -26 -103q-43 -96 -44 -322q0 -20 1 -41q0 -31 -27 -30q-25 0 -24 30q0 258 -45 363q-24 58 -24 103q0 25 7 46z" />
<glyph unicode="(" horiz-adv-x="612" d="M61 629q0 428 104.5 668.5t303.5 377.5l78 -63q-115 -154 -156 -357.5t-41 -625.5q0 -434 41 -632t156 -353l-78 -62q-199 137 -303.5 378t-104.5 669z" />
<glyph unicode=")" horiz-adv-x="612" d="M61 -356q115 158 156 355.5t41 629.5q0 420 -42 623.5t-155 359.5l78 63q199 -137 303.5 -377.5t104.5 -668.5t-104.5 -669t-303.5 -378z" />
<glyph unicode="*" horiz-adv-x="1024" d="M113 1175q-5 16 -5 31q0 29 17 58q25 41 72 52q14 3 27 3q33 0 65 -19q25 -16 41 -37.5t29.5 -52l17.5 -39.5q29 -47 90 -84l25 15q-2 82 -29 123q-6 10 -25.5 34.5t-31 48t-11.5 54.5q0 55 33 89t82 34q51 0 84 -35t33 -88q0 -29 -12.5 -54.5t-33 -50t-24.5 -34.5 q-25 -43 -27 -121l27 -15q72 43 92 84q6 10 17.5 41t27 51.5t41.5 36.5q33 19 66 19l28 -3q47 -11 70 -52q17 -29 17 -59q0 -16 -5 -33q-14 -46 -59 -70q-25 -14 -53.5 -17.5t-60 1t-44.5 4.5q-47 0 -114 -37v-31q64 -37 111 -37h5q8 0 43 5t59.5 2t53.5 -17q45 -27 58 -73 q5 -16 5 -32q0 -29 -16 -57q-25 -41 -72 -52q-14 -3 -27 -4q-33 0 -65 19q-25 16 -41 39t-29.5 52.5t-17.5 37.5q-31 49 -88 84l-29 -16q0 -80 29 -121q4 -8 25.5 -34.5t32 -49.5t10.5 -59q0 -49 -32 -82q-34 -35 -83 -35q-51 0 -84 35q-31 33 -31 82q0 35 12.5 60.5t32 50 t23.5 34.5q25 41 27 119l-27 14q-72 -41 -90 -82q-6 -10 -17.5 -40.5t-27 -51t-41.5 -37.5q-33 -19 -66 -19q-14 0 -27 4q-46 11 -71 54q-16 27 -16 56q0 17 6 33q14 46 59 71q25 14 53.5 17t59 -1t43.5 -4q49 0 114 35v35q-66 35 -111 35h-5q-8 0 -43 -5.5t-59.5 -2.5 t-51.5 18q-47 27 -61 73z" />
<glyph unicode="+" d="M158 428v170q223 0 397 -27q-20 133 -27 398h170q0 -201 -26 -398q197 27 399 27v-170q-270 6 -399 27q16 -127 26 -402h-170q10 293 27 402q-133 -21 -397 -27z" />
<glyph unicode="," horiz-adv-x="538" d="M82 -186q137 20 206.5 98t63.5 190q-29 -55 -106 -55q-57 0 -91 35t-34 98q0 61 41 103.5t112 42.5q74 0 118 -51.5t44 -153.5q0 -80 -27.5 -148.5t-108.5 -130t-208 -78.5z" />
<glyph unicode="-" horiz-adv-x="577" d="M37 412v202q250 -8 506 0q-4 -102 0 -202q-256 8 -506 0z" />
<glyph unicode="." horiz-adv-x="573" d="M102 150q0 78 52.5 127t132.5 49q86 0 135 -49.5t49 -129.5q0 -82 -48 -128t-136 -46q-84 0 -134.5 45.5t-50.5 131.5z" />
<glyph unicode="/" horiz-adv-x="780" d="M27 -362q303 991 510 1775q54 -4 108 -4l109 4q-276 -893 -510 -1775q-27 2 -108.5 2t-108.5 -2z" />
<glyph unicode="0" horiz-adv-x="1261" d="M78 567q0 297 148.5 458t404.5 161q268 0 411.5 -158t143.5 -459q0 -305 -148.5 -455.5t-406.5 -150.5q-553 0 -553 604zM430 565q0 -190 22.5 -294.5t63.5 -142.5t115 -38q109 0 154.5 100.5t45.5 378.5q0 283 -46 386.5t-156 103.5q-104 0 -151.5 -106.5t-47.5 -387.5z " />
<glyph unicode="1" horiz-adv-x="909" d="M70 -2q2 18 2 81.5t-2 80.5h104q66 0 87.5 26.5t23.5 85.5q2 29 2 217.5t-2 317.5q-64 -33 -134 -33q-35 0 -71 8q2 18 2 83t-2 83h41q14 -1 27 0q127 0 187 53q67 59 79 197q29 -2 111.5 -2t111.5 2q-8 -168 -10 -254q-1 -48 -2 -180q0 -66 1 -153q1 -261 3 -339 q0 -59 23.5 -85.5t86.5 -26.5h99q-2 -16 -2 -80t2 -82q-246 6 -383 6z" />
<glyph unicode="2" horiz-adv-x="1112" d="M70 121q0 276 305 399q154 63 216 134t62 177q0 98 -55 152.5t-166 54.5q-74 0 -136.5 -29.5t-94.5 -84.5q33 12 78 12q72 0 112.5 -39t40.5 -106.5t-45 -105.5t-123 -38t-124 51.5t-46 139.5q0 162 123 255t330 93q215 0 329.5 -87t114.5 -239q0 -334 -493 -414 q-242 -39 -316 -174q73 70 222 71q68 0 153 -15q57 -10 85 -14.5t79 -10.5q26 -3 44.5 -3t31.5 3q25 6 53.5 19.5t38.5 43.5q6 19 6 42q0 14 -2 30l100 15q39 -96 39 -190q0 -144 -75 -226q-77 -84 -216 -86q-72 0 -135 22.5t-101 49t-110 83.5q-80 66 -147 66 q-53 0 -84 -31q20 6 37 6q43 0 67.5 -25.5t24.5 -66.5t-27.5 -65.5t-75.5 -24.5q-53 0 -86.5 42t-33.5 114z" />
<glyph unicode="3" horiz-adv-x="1210" d="M74 41q0 92 53 148.5t137 56.5q78 0 122 -41t44 -113t-47 -109.5t-125 -37.5q-20 0 -45 4q72 -125 264 -125q283 0 283 297q0 274 -287 274h-63v121h53q129 2 193.5 68.5t64.5 210.5q0 113 -59.5 177t-169.5 64q-178 0 -250 -108q23 8 57 8q74 0 117 -38t43 -105.5 t-44 -106.5t-118 -39q-82 0 -127 49t-45 133q0 150 131 253.5t350 103.5t342 -98.5t123 -274.5q0 -270 -283 -342q168 -20 257.5 -116.5t89.5 -243.5q0 -205 -153 -311.5t-429 -106.5q-217 0 -348 97t-131 251z" />
<glyph unicode="4" horiz-adv-x="1208" d="M61 168v102q35 57 314.5 454.5t320.5 473.5q37 -2 126 -2t124 2q-4 -281 -4 -922l203 7v-121l-201 4q0 -123 2 -152q4 -49 25.5 -69.5t75.5 -20.5h73q-2 -18 -2 -80.5t2 -81.5q-217 6 -356 7l-367 -7v162h84q59 0 81 19.5t24 70.5q2 47 2 156q-81 1 -167 1 q-172 0 -360 -3zM213 272q109 -2 377 -2q0 406 -2 570q-342 -511 -375 -568z" />
<glyph unicode="5" horiz-adv-x="1200" d="M74 41q0 94 53 149.5t137 55.5q78 0 122 -40t44 -111.5t-45 -110.5t-125 -39q-31 0 -51 8q68 -123 258 -123q283 0 283 328q0 311 -295 311q-133 0 -256 -84l-52 51q57 121 82 338q20 174 20 336q0 40 -1 80q133 -47 387 -47q252 0 412 67l53 -41q-12 -172 -132 -260 t-313 -88q-199 0 -327 88q-12 -233 -64 -381q164 98 377 99q242 0 364.5 -117t122.5 -340q0 -231 -152.5 -354t-432.5 -123q-221 0 -345 95t-124 253z" />
<glyph unicode="6" horiz-adv-x="1220" d="M76 657q0 391 161.5 594t419.5 203q195 0 306.5 -87t111.5 -216q0 -92 -46 -141t-134 -49q-78 0 -121 41.5t-43 109.5q0 78 54 117q43 31 108 31q17 0 35 -3q-66 84 -207 84q-158 0 -226.5 -137t-70.5 -461q96 154 311 154q203 0 307.5 -112.5t104.5 -329.5 q0 -221 -148.5 -353.5t-394.5 -132.5q-248 0 -388 166t-140 522zM428 440q0 -166 45 -247.5t156 -81.5q180 0 180 329q0 311 -180 312q-102 0 -151.5 -72t-49.5 -240z" />
<glyph unicode="7" horiz-adv-x="1118" d="M80 1196q20 -4 67.5 -4t67.5 4l16 -123q66 123 220 123q125 0 245 -102q129 -109 224 -109q53 0 79 29q-8 -2 -24 -2q-45 0 -75 26.5t-30 69.5q0 49 31 75.5t80 26.5q117 0 117 -141q0 -172 -170 -344q-53 -55 -86 -93t-70 -91.5t-55.5 -106.5t-31.5 -123 q-12 -65 -12 -144v-12q1 -87 15 -194q4 -27 4 -51q0 -85 -46 -133q-58 -61 -157 -62q-104 0 -157 60.5t-53 197.5q0 215 111.5 379t340.5 310l91 60t74 60t67 78q-106 -98 -281 -98h-7q-112 0 -243 61q-70 31 -110 31q-102 0 -101 -147q-20 2 -68.5 2t-68.5 -2q9 75 9 189 q0 23 -1 47q-2 147 -12 253z" />
<glyph unicode="8" horiz-adv-x="1241" d="M76 313q0 211 237 301q-193 119 -192 371q0 213 136 341t380 128q217 0 333.5 -90t116.5 -240q0 -174 -167 -276q137 -57 195.5 -153.5t58.5 -237.5q0 -238 -152 -363t-422 -125q-524 0 -524 344zM287 334q0 -102 83 -157.5t246 -55.5q154 0 238 53t84 135t-79 127 t-318 94q-70 14 -129 35q-125 -81 -125 -231zM371 1126q0 -88 72.5 -135t269.5 -84q53 -10 88 -20q94 90 94 223q0 92 -62.5 148.5t-199.5 56.5q-129 0 -195.5 -54.5t-66.5 -134.5z" />
<glyph unicode="9" horiz-adv-x="1214" d="M70 682q0 223 146.5 363.5t385.5 140.5q256 0 397.5 -174t141.5 -537q0 -360 -150.5 -571t-468.5 -211q-205 0 -320.5 84t-115.5 215q0 84 49 132t135 48q76 0 120 -40t44 -109q0 -86 -60 -122q-45 -27 -109 -27q-22 0 -46 3q82 -84 248 -84q170 0 243.5 137.5 t75.5 475.5q-88 -162 -297 -162q-201 0 -310 115.5t-109 322.5zM403 727q0 -342 183 -342q98 0 148 78t50 264q0 174 -46 257t-154 83q-96 0 -138.5 -85t-42.5 -255z" />
<glyph unicode=":" horiz-adv-x="546" d="M133 254q0 61 39 98t100 37q66 0 104 -37t38 -100q0 -61 -38 -96t-104 -35q-63 0 -101 36t-38 97zM133 707q0 61 39 98t100 37q66 0 104 -38t38 -99.5t-38 -97.5t-104 -36q-63 0 -101 36.5t-38 99.5z" />
<glyph unicode=";" horiz-adv-x="567" d="M61 -117q309 70 304 318q-27 -68 -107 -68q-51 0 -81 32t-30 91q0 61 40 99t106 38q74 0 112.5 -52t38.5 -138q0 -139 -101 -238.5t-267 -132.5zM154 707q0 61 38.5 98t100.5 37q63 0 102 -38t39 -99.5t-38 -97.5t-103 -36q-63 0 -101 36.5t-38 99.5z" />
<glyph unicode="&#x3c;" d="M285 465v90q442 285 571 379l76 -139q-129 -63 -518 -285q389 -221 518 -285l-76 -139q-129 94 -571 379z" />
<glyph unicode="=" d="M164 268q2 39 2 79t-2 81q226 -4 451.5 -4t449.5 4q-2 -40 -2 -80t2 -80q-224 4 -449.5 4t-451.5 -4zM164 600q2 40 2 80t-2 80q226 -4 451.5 -4t449.5 4q-2 -39 -2 -79t2 -81q-224 4 -449.5 4t-451.5 -4z" />
<glyph unicode="&#x3e;" d="M283 225q129 63 518 285q-389 221 -518 285l75 139q129 -94 572 -379v-90q-442 -285 -572 -379z" />
<glyph unicode="?" horiz-adv-x="1071" d="M66 1073q0 168 128 274.5t353 106.5q240 0 359.5 -105.5t119.5 -287.5q0 -170 -103.5 -271.5t-318.5 -177.5q-63 -23 -85.5 -39t-22.5 -41q0 -45 61 -45q106 0 211 74l27 -61q-133 -98 -281 -99q-80 0 -128 38t-48 104q0 53 31.5 93t101.5 83q190 117 191 319 q0 119 -60.5 188.5t-185.5 69.5q-174 0 -238 -131q43 16 92 17q74 0 117 -42t43 -116q0 -70 -49 -113t-131 -43q-88 0 -136 53.5t-48 151.5zM377 135q0 78 48 124t128 46q82 0 129 -46t47 -126t-47 -125t-129 -45t-129 45t-47 127z" />
<glyph unicode="@" horiz-adv-x="1681" d="M80 526q57 344 303 541t584 197q371 0 546 -206q120 -140 121 -369q0 -106 -26 -232q-80 -375 -410 -375q-115 0 -181.5 47t-70.5 139q-96 -180 -293 -180q-119 0 -181 85q-45 61 -45 166q0 41 7 89q35 250 151.5 372t268.5 122q186 0 207 -152q86 72 104 121 q42 -2 84.5 -2t85.5 2q-55 -217 -108 -508q-8 -46 -8 -81q0 -114 81 -114q72 0 124.5 79t74.5 192q23 117 24 217q0 188 -83 314q-127 194 -469 194q-289 0 -484.5 -170t-246.5 -494q-16 -102 -17 -191q0 -222 104 -355q144 -185 441 -185q315 0 512 166l43 -47 q-88 -94 -238.5 -149.5t-312.5 -55.5q-395 0 -574 225q-133 168 -134 418q0 85 16 180zM731 436q-10 -58 -10 -99q0 -112 72 -112q117 0 184 350q13 66 13 112q0 107 -70 108q-123 -1 -189 -359z" />
<glyph unicode="A" horiz-adv-x="1810" d="M57 -4v190h54q86 0 133 40t86 141l397 1058q117 -6 182 -6l183 6q57 -164 202 -535l209 -525q43 -102 84 -140.5t103 -38.5h63v-190q-268 4 -420 4l-422 -4v190h82q74 0 92 51q7 19 7 44q0 42 -19 102l-16 49q-127 4 -281 4q-103 0 -217 -2l-18 -55q-20 -58 -20 -99 q0 -27 8 -46q22 -48 104 -48h78q0 -14 -1 -95t-1 -95q-209 4 -326 4zM600 555q106 -2 209.5 -2t204.5 2q-111 315 -209 565z" />
<glyph unicode="B" horiz-adv-x="1470" d="M57 -2v188h74q66 0 93.5 23.5t29.5 87.5q4 98 4 414.5t-4 398.5q-4 63 -28.5 90t-80.5 27h-88v186q10 0 180.5 -2t219.5 -2q47 0 176 1t172 1q553 0 553 -356q0 -127 -69.5 -207t-188.5 -113q147 -27 229 -111q84 -87 84 -215q0 -202 -130 -306q-132 -105 -460 -105 q-16 0 -181 1t-208 1zM621 662q0 -283 4 -394q6 -92 88 -92h69q129 0 182.5 59.5t53.5 192.5q0 125 -72 179.5t-223 54.5h-102zM621 786h100q147 0 202.5 48.5t55.5 181.5q0 221 -221 221h-49q-80 0 -84 -82q-4 -95 -4 -369z" />
<glyph unicode="C" horiz-adv-x="1495" d="M80 709q0 371 187.5 558t500.5 187q205 0 360 -90q54 -32 81 -32q8 0 14 3q25 12 32 90q18 -2 84 -2t84 2q-14 -80 -25 -253q-10 -146 -10 -245q0 -18 1 -34q-62 4 -124 4t-122 -4q-18 176 -86 268t-228 92q-172 0 -248.5 -121.5t-76.5 -422.5q0 -166 23.5 -278 t68.5 -169t98.5 -79.5t124.5 -22.5q156 0 244 101t92 290q43 -2 132 -2t134 2q-8 -311 -153.5 -449.5t-483.5 -138.5q-344 0 -524 175.5t-180 570.5z" />
<glyph unicode="D" horiz-adv-x="1619" d="M57 1227v186q4 0 162 -2t236 -2q74 0 226.5 1t160.5 1q365 0 530.5 -167t169.5 -527v-15q0 -185 -48 -321q-50 -141 -146.5 -224t-219 -121t-278.5 -38q-268 2 -399 2l-394 -4v190h72q72 0 97.5 22.5t27.5 88.5q4 96 4 413.5t-4 399.5q-4 63 -30.5 90t-82.5 27h-84z M620 715q1 -317 5 -439q4 -90 88 -90h67q201 0 287 112t86 421q0 289 -84 399.5t-287 110.5h-69q-84 0 -88 -80q-5 -100 -6 -348q1 -41 1 -86z" />
<glyph unicode="E" horiz-adv-x="1501" d="M57 -4v190h72q68 0 94.5 32t30.5 99q6 78 6 387.5t-4 393.5q-4 72 -31.5 100.5t-85.5 28.5h-82v186q8 0 174 -2t220 -2h518q354 0 467 14q-13 -192 -13 -417v-115h-188q0 199 -61.5 265.5t-208.5 66.5h-220q-111 0 -116 -115q-6 -88 -6 -334h67q109 0 153 45t44 154v53 h151q-10 -297 -10 -313q0 -145 10 -320q-38 2 -74.5 2t-72.5 -2v47q-2 115 -45 163t-160 48h-63q0 -262 6 -342q4 -68 33.5 -95.5t87.5 -27.5h215q156 0 216 81t60 290q25 -2 101.5 -2t101.5 2q-20 -217 -21 -567q-143 10 -440 10h-539q-53 0 -146 -1t-166 -2t-75 -1z" />
<glyph unicode="F" horiz-adv-x="1458" d="M57 -4v190h78q63 0 90 33t31 100q4 94 4 393.5t-4 395.5q-6 119 -111 119h-88v186q6 0 169 -2t227 -2q29 0 173 1t310 1q369 0 465 12q-13 -236 -13 -460q0 -56 1 -111q-50 2 -97 2t-90 -2q0 219 -61.5 295t-216.5 76h-179q-113 0 -118 -115q-4 -49 -4 -332h57 q109 0 153 45t44 154v49h151q-10 -297 -10 -313q0 -145 10 -320q-38 2 -75 2t-72 -2v47q-2 115 -45 161t-160 46h-53q0 -270 4 -326q4 -70 31.5 -101.5t99.5 -31.5h110v-190q-260 4 -405 4z" />
<glyph unicode="G" horiz-adv-x="1615" d="M80 709q0 371 186.5 558t499.5 187q209 0 362 -92q51 -31 79 -31q9 0 15 3q26 13 33 91q18 -2 84 -2t84 2q-14 -80 -25 -253q-10 -146 -10 -245q0 -18 1 -34q-62 4 -124 4t-122 -4q-18 176 -86 268t-228 92q-172 0 -248.5 -121.5t-76.5 -422.5q0 -164 24.5 -277 t70.5 -170t97.5 -79.5t120.5 -22.5q131 0 207 69.5t76 214.5q0 84 -22.5 120t-88.5 36h-76v152q219 -6 336 -7l328 7v-152h-55q-43 0 -59.5 -24.5t-16.5 -83.5q0 -326 22 -500q-52 4 -103.5 4t-102.5 -4q-23 98 -56 188q-55 -100 -173 -160.5t-269 -60.5q-326 0 -505 175.5 t-179 574.5z" />
<glyph unicode="H" horiz-adv-x="1744" d="M57 -4v190h80q68 0 91.5 19.5t25.5 81.5q4 94 4 423.5t-4 405.5q-4 61 -27.5 86t-79.5 25h-90q2 23 2 94.5t-2 91.5q242 -6 377 -6q59 0 148.5 1t156 3t70.5 2v-186h-78q-55 0 -81.5 -25.5t-31.5 -85.5q-4 -45 -4 -348q248 -4 519 0q0 303 -5 348q-4 59 -31.5 85 t-82.5 26h-80q2 23 2 94.5t-2 91.5q242 -6 377 -6q59 0 149 1t156.5 3t71.5 2q-2 -20 -2 -92t2 -94h-91q-55 0 -78.5 -24.5t-27.5 -86.5q-4 -76 -4 -406.5t4 -422.5q4 -59 26.5 -80t90.5 -21h80q-2 -23 -2 -96.5t2 -93.5q-242 4 -377 4l-377 -4q2 20 2 94t-2 96h78 q68 0 91 22.5t25 78.5q4 106 5 352q-197 2 -519 -2q0 -244 4 -350q4 -57 25 -79t88 -22h78v-190q-240 4 -375 4z" />
<glyph unicode="I" horiz-adv-x="876" d="M61 -4q2 21 2 94.5t-2 95.5h82q63 0 85 22.5t26 78.5q4 88 4 420.5t-4 408.5q-4 61 -27.5 86t-79.5 25h-86q2 23 2 94.5t-2 91.5q244 -6 379 -6q59 0 149.5 1t157 3t70.5 2q-2 -20 -2 -92t2 -94h-86q-55 0 -78.5 -24.5t-27.5 -86.5q-6 -82 -5 -408.5t5 -420.5 q4 -55 26.5 -78t83.5 -23h80v-190q-240 4 -375 4z" />
<glyph unicode="J" horiz-adv-x="1206" d="M31 285q0 90 53 146t145 56q80 0 128.5 -45t48.5 -120q0 -92 -68 -136q-53 -33 -120 -33q-19 0 -40 3q74 -70 193 -70q115 0 172 72.5t63 244.5q4 125 4 381t-4 332q-4 59 -27.5 85t-78.5 26h-82v186q233 -6 366 -6q57 0 144.5 1t153 3t69.5 2q-2 -20 -2 -92t2 -94h-66 q-55 0 -79.5 -23.5t-26.5 -87.5q-2 -51 -2 -341q0 -118 1 -238t1 -130q0 -215 -139 -328q-141 -116 -394 -116q-199 0 -307 90.5t-108 231.5z" />
<glyph unicode="K" horiz-adv-x="1718" d="M57 -4v190h74q68 0 92.5 25t28.5 90q6 82 5 407.5t-5 403.5q-4 61 -29.5 88t-89.5 27h-76v186q242 -6 377 -6q59 0 148.5 1t156 3t70.5 2q-2 -20 -2 -92t2 -94h-86q-53 0 -77.5 -26.5t-29.5 -88.5q-4 -49 -4 -397l430 370q47 39 31 90.5t-84 51.5h-78v186q242 -6 375 -6 q59 0 145.5 1t150 3t67.5 2q-4 -92 0 -186h-74q-102 0 -175 -34t-165 -110l-201 -168l216 -332q148 -226 180 -266q72 -90 98 -108q35 -23 88 -23h45q-4 -92 0 -188q-242 6 -379 6l-381 -6q2 23 2 94.5t-2 93.5h53q63 0 73.5 42t-32.5 112q-90 154 -231 348l-152 -127 q0 -182 4 -260q4 -63 23.5 -89t79.5 -26h82q-2 -23 -2 -96.5t2 -93.5q-238 4 -371 4z" />
<glyph unicode="L" horiz-adv-x="1357" d="M57 -4v190h84q68 0 89.5 26t25.5 93q4 96 4 409.5t-4 391.5q-4 61 -28.5 91t-77.5 30h-89v186q248 -6 385 -6q59 0 149.5 1t159 3t74.5 2q-2 -29 -2 -186h-84q-63 0 -91.5 -28t-30.5 -93q-4 -82 -4.5 -397.5t4.5 -415.5q2 -61 30.5 -84t85.5 -23h111q100 0 154.5 29 t88 119t39.5 260q20 -2 91 -2t92 2q-13 -223 -13 -426q0 -90 3 -176q-127 8 -420 8h-471q-183 0 -355 -4z" />
<glyph unicode="M" horiz-adv-x="2023" d="M57 -4v190h78q68 0 96.5 32t32.5 114q4 76 4 385t-4 387q-6 123 -119 123h-86v186q157 -4 313 -4t312 4q150 -330 365 -745q215 444 342 745q144 -4 288 -4t287 4v-186h-84q-111 0 -117 -127q-4 -72 -4 -381t4 -395q4 -72 29 -105t92 -33h80v-190q-250 4 -391 4l-393 -4 v190h84q63 0 89.5 35t30.5 105q2 63 4 304v148q0 136 -1 221q-215 -426 -420 -890h-90q-180 397 -430 886q-3 -95 -4 -268v-91q1 -241 6 -304q4 -80 33.5 -113t99.5 -33h96q-2 -23 -2 -96.5t2 -93.5q-199 4 -311 4z" />
<glyph unicode="N" horiz-adv-x="1699" d="M57 -4v190h82q68 0 97.5 29t33.5 90q4 100 5 409q0 44 1 83q0 237 -6 309q-10 121 -123 121h-88v186q144 -4 290.5 -4t293.5 4q233 -371 588 -876q2 154 1 274q0 180 -3 285q-2 72 -33 101.5t-88 29.5h-107q2 23 2.5 94.5t-2.5 91.5q4 0 61.5 -2t133.5 -3t127 -1l322 6 q-2 -20 -2.5 -92t2.5 -94h-91q-57 0 -86.5 -30t-33.5 -101q-4 -88 -4 -484.5t4 -611.5q-76 4 -151.5 4t-149.5 -4l-662 995q-1 -165 -1 -297q0 -264 5 -393q4 -61 33 -90t96 -29h103q-2 -49 -2 -96.5t2 -93.5q-207 4 -324 4z" />
<glyph unicode="O" horiz-adv-x="1601" d="M80 707q0 367 193.5 555t527.5 188q360 0 540.5 -183.5t180.5 -557.5q0 -371 -198 -558.5t-523 -187.5q-721 1 -721 744zM498 707q0 -309 64.5 -432t238.5 -123q170 0 237.5 129t67.5 428q0 307 -66.5 430t-238.5 123q-162 0 -232.5 -130t-70.5 -425z" />
<glyph unicode="P" horiz-adv-x="1445" d="M57 -4v190h68q66 0 95.5 28t33.5 95q4 76 4 408t-4 409q-4 57 -26.5 79t-73.5 22h-97v186q16 0 213 -3t217 -3q49 0 156 1t148 1q276 0 431.5 -109.5t155.5 -341.5q0 -236 -155.5 -354.5t-429.5 -118.5q-86 0 -172 4q0 -113 4 -182q6 -123 116 -123h101q-2 -20 -2 -94 t2 -94q-250 4 -393 4zM618 645h93q154 0 214 70.5t60 234.5q0 154 -55.5 220.5t-188.5 66.5h-47q-66 0 -69 -72q-7 -88 -7 -520z" />
<glyph unicode="Q" horiz-adv-x="1601" d="M80 707q0 367 193.5 555t527.5 188q360 0 540.5 -183.5t180.5 -557.5q0 -479 -334 -660q29 -156 61.5 -213t91.5 -57q103 0 103 169v19l84 4q1 -20 1 -39q0 -319 -319 -319q-150 0 -235 91q-79 83 -79 236q0 15 1 29q-49 -6 -96 -6q-721 1 -721 744zM498 707 q0 -238 34.5 -361t122.5 -166q-27 37 -26 101q0 90 63.5 145t161.5 55q145 0 221 -100q31 127 31 328q0 307 -66.5 430t-238.5 123q-162 0 -232.5 -130t-70.5 -425zM692 268q0 -55 33 -85.5t94 -30.5q53 0 105 20q1 22 1 41q0 178 -118 178q-47 0 -81 -28.5t-34 -94.5z" />
<glyph unicode="R" horiz-adv-x="1632" d="M57 -4v190h74q61 0 90 28t33 93q4 78 4 405.5t-4 403.5q-4 61 -26.5 86t-77.5 25h-93v186q10 0 183.5 -2t218.5 -2q41 0 192.5 1t227.5 1q254 0 390 -97t136 -284q0 -147 -96.5 -244.5t-255.5 -113.5q129 -25 189.5 -98.5t76.5 -196.5q18 -137 43 -182t70 -45q49 0 61 71 q4 23 4 50q0 60 -18 143q61 0 102 8q20 -84 20 -156q0 -102 -39 -180q-67 -133 -276 -133q-199 0 -273.5 93t-86.5 294q-8 164 -65.5 220t-176.5 56h-66q0 -244 6.5 -309t34 -94t82.5 -29h72v-188q-311 4 -377 4zM619 756h118q143 0 200.5 55t57.5 188q0 125 -49 181.5 t-172 56.5h-69q-76 0 -80 -82q-6 -196 -6 -399z" />
<glyph unicode="S" horiz-adv-x="1394" d="M80 -12q23 172 23 337q0 72 -5 142q16 -2 75.5 -2t74.5 2q98 -326 508 -326q152 0 230.5 48.5t78.5 134.5q0 88 -90 129t-309 63q-543 47 -543 453q0 211 139 346t402 135q195 0 346 -78q39 -24 63 -23q5 0 9 1q26 6 34 21t17 54q12 -2 73.5 -2t73.5 2q-25 -130 -25 -277 q0 -78 7 -161h-148q-88 283 -418 283q-147 0 -217.5 -46t-70.5 -120q0 -80 76.5 -116t277.5 -54q289 -27 434 -139.5t145 -341.5q0 -233 -152.5 -361.5t-428.5 -128.5q-219 0 -400 98q-33 18 -57 19q-55 0 -67 -92q-14 2 -78 2t-78 -2z" />
<glyph unicode="T" horiz-adv-x="1495" d="M57 1419q106 -8 373 -8h637q223 0 371 8q-15 -195 -15 -377q0 -100 4 -196q-23 2 -99.5 2t-98.5 -2l-8 180q-4 94 -46 143.5t-137 49.5h-110q-3 -143 -4 -382q0 -60 1 -125q1 -329 5 -395q6 -131 125 -131h88v-190q-252 4 -395 4l-396 -4v190h84q121 0 131 131 q4 72 4 395.5t-4 506.5h-108q-94 0 -136 -49.5t-47 -143.5l-8 -180q-23 2 -100.5 2t-99.5 -2q4 96 4 196q0 182 -15 377z" />
<glyph unicode="U" horiz-adv-x="1689" d="M57 1227v186q242 -6 377 -6q80 0 230.5 3t154.5 3v-186h-78q-61 0 -92 -30t-33 -99q-2 -106 -2 -299t2 -246q2 -203 74 -289t223.5 -86t223 84t73.5 291q3 198 3 334t-3 211q-2 129 -118 129h-76v186q193 -6 305 -6q66 0 185.5 3t125.5 3v-186h-63q-111 0 -113 -129v-545 q0 -600 -592 -600q-328 0 -481.5 142.5t-153.5 453.5q0 16 1 139t2 215q0 31 1 63q0 64 -2 132q-4 70 -29.5 99.5t-82.5 29.5h-62z" />
<glyph unicode="V" horiz-adv-x="1640" d="M37 1227v186q252 -6 391 -6q84 0 238.5 3t156.5 3q-2 -20 -2 -92t2 -94h-61q-96 0 -96 -102q0 -33 10 -76q90 -322 217 -719q180 492 233 717q14 50 14 86q0 27 -7 48q-18 46 -93 46h-51v186q205 -6 314 -6q66 0 181 3t122 3q-2 -20 -2 -92t2 -94h-50q-84 0 -129 -34 t-84 -132q-68 -162 -187.5 -509t-182.5 -564q-47 2 -184.5 2t-184.5 -2q-55 203 -167.5 566t-168.5 519q-33 88 -69.5 121t-118.5 33h-43z" />
<glyph unicode="W" horiz-adv-x="2330" d="M37 1227v186q248 -6 389 -6q84 0 238 2l151 4q-2 -20 -2 -92t2 -94h-59q-63 0 -82 -32q-10 -17 -10 -45q0 -25 8 -60q76 -330 200 -742q160 526 203 742q6 34 7 59q0 30 -10 47q-17 31 -85 31h-35q2 23 2 94.5t-2 91.5q207 -6 326 -6q70 0 194.5 3t129.5 3 q-3 -47 -3.5 -93.5t3.5 -92.5h-54q-57 0 -74 -31q-9 -16 -9 -42q0 -25 8 -58q78 -336 200 -750q45 147 107.5 388t81.5 343q9 36 9 63.5t-9 47.5q-18 39 -90 39h-39q2 23 2 94.5t-2 91.5q184 -6 284 -6q57 0 164 3t113 3q-2 -20 -2 -92t2 -94h-66q-74 0 -114.5 -32 t-67.5 -120q-37 -121 -158 -550t-149 -537q-47 2 -186.5 2t-186.5 -2q-109 426 -223 817q-115 -352 -236 -817q-41 2 -171 2t-171 -2q-51 207 -151.5 574.5t-149.5 527.5q-23 74 -57.5 105.5t-106.5 31.5h-63z" />
<glyph unicode="X" horiz-adv-x="1685" d="M57 -4v190h41q133 0 215 57.5t168 188.5l164 248l-258 389q-57 86 -115.5 122t-148.5 36h-47v186q8 0 89 -1t186.5 -2t172.5 -1l422 4q-2 -47 -2 -93.5t2 -92.5h-35q-63 0 -78 -48q-4 -13 -5 -29q0 -41 30 -97l146 -240q109 166 139 236q29 67 29 108q0 14 -4 26 q-13 44 -70 44h-39q2 23 2 94.5t-2 91.5q176 -4 274 -4l275 4q-2 -20 -2 -92t2 -94h-41q-125 0 -180.5 -41t-120.5 -150l-197 -323l252 -381q49 -80 104.5 -113t139.5 -33h63q-2 -23 -2 -96.5t2 -93.5q-281 4 -438 4l-426 -4q2 20 2 94t-2 96h49q53 0 66 44q2 9 2 19 q0 44 -41 122l-129 207l-131 -201q-47 -76 -47 -123q0 -11 3 -20q13 -48 72 -48h49q-2 -46 -2 -93.5t2 -96.5q-197 4 -303 4z" />
<glyph unicode="Y" horiz-adv-x="1716" d="M37 1227v186q279 -6 436 -6l434 6q-2 -47 -2 -93.5t2 -92.5h-69q-99 0 -100 -76q0 -38 26 -96q78 -182 205 -385q115 217 188 385q28 61 28 100q0 72 -91 72h-56v186q207 -6 324 -6l319 6q-2 -45 -2 -91.5t2 -94.5h-43q-125 0 -181 -34t-105 -118q-59 -102 -310 -588 v-188q0 -63 24 -88t97 -25h101q-2 -47 -2 -94.5t2 -95.5q-272 4 -426 4l-428 -4q2 20 2 94t-2 96h104q74 0 93.5 25t19.5 88v186q-219 438 -320 613q-39 68 -93 98.5t-144 30.5h-33z" />
<glyph unicode="Z" horiz-adv-x="1380" d="M57 0v176l791 1051h-221q-150 0 -220.5 -29t-101.5 -107.5t-31 -244.5q-18 2 -87.5 2t-90.5 -2q6 90 7 286.5t-3 284.5q172 -6 439 -6h768v-176l-785 -1049h293q180 0 255 84t75 316q20 -2 90 -2t88 2q-14 -319 -2 -592q-258 6 -403 6h-861z" />
<glyph unicode="[" horiz-adv-x="626" d="M94 1638q112 -4 224 -4t225 4q-2 -18 -2 -73.5t2 -71.5h-58q-55 0 -79.5 -21.5t-26.5 -79t-2 -765t2 -764.5q4 -57 27.5 -79t93.5 -22h43q-2 -16 -2 -71.5t2 -73.5q-113 4 -225 4t-224 -4q31 348 31 684v748q0 241 -31 589z" />
<glyph unicode="\" horiz-adv-x="780" d="M27 1413q54 -4 108 -4l109 4q233 -883 510 -1775q-27 2 -109 2t-108 -2q-207 784 -510 1775z" />
<glyph unicode="]" horiz-adv-x="626" d="M88 -238h43q70 0 94.5 21.5t26.5 79.5q2 27 2 765t-2 765q-2 55 -26.5 77.5t-80.5 22.5h-57v145q47 -2 225.5 -2t225.5 2q-33 -279 -33 -600v-815q0 -319 33 -606q-47 2 -225.5 2t-225.5 -2q2 18 2 73.5t-2 71.5z" />
<glyph unicode="^" d="M180 883q74 115 211 311.5t195 259.5h37q55 -63 200.5 -271t204.5 -300l-127 -72q-41 61 -141.5 248.5t-155.5 304.5q-254 -489 -301 -553z" />
<glyph unicode="_" horiz-adv-x="1024" d="M0 -193q164 -4 512 -4t512 4q-2 -48 -2 -96t2 -96q-164 4 -512 4t-512 -4q2 47 2 95t-2 97z" />
<glyph unicode="`" horiz-adv-x="1089" d="M353 1324q0 52 46 69q15 5 33 5q37 0 84 -24q117 -72 258 -264l-16 -25q-197 51 -340 144q-65 39 -65 95z" />
<glyph unicode="a" horiz-adv-x="1130" d="M43 211q0 299 555 328v79q0 127 -43 185q-42 55 -159 55h-9q-39 0 -72 -6q92 -29 93 -127q0 -68 -43 -105.5t-121 -37.5q-74 0 -116 38.5t-42 112.5q0 119 123 186.5t297 67.5q231 0 324.5 -100.5t93.5 -304.5v-310q0 -76 9 -101.5t32 -25.5q49 0 48 142q0 38 -3 86l82 4 q2 -38 2 -73q0 -147 -42 -231q-52 -103 -202 -104q-195 0 -238 156q-96 -156 -295 -156q-129 0 -201.5 62.5t-72.5 179.5zM381 276q0 -129 98 -129q88 0 119 78v244q-217 -21 -217 -193z" />
<glyph unicode="b" horiz-adv-x="1206" d="M31 1255v156q383 0 463 6q-4 -211 -5 -532v-117q70 219 302 219q174 0 262 -122t88 -396q0 -264 -92.5 -384t-270.5 -120q-262 0 -334 248q-78 -98 -92 -225h-209q10 94 21 329q4 106 4 405.5t-6 436.5q-2 53 -20.5 74.5t-59.5 21.5h-51zM489 477q0 -174 36 -254t126 -80 q80 0 115 68t35 266q0 180 -26.5 256t-119.5 76q-84 0 -125 -77t-41 -255z" />
<glyph unicode="c" horiz-adv-x="1021" d="M55 461q0 248 133.5 387t372.5 139q178 0 284.5 -71.5t106.5 -196.5q0 -78 -46 -122t-130 -44q-80 0 -124 39t-44 106q0 94 78 131q-47 20 -100 21q-98 0 -144.5 -81t-46.5 -275q0 -197 38 -275t130 -78q90 0 130 45t55 136q12 0 63 -4.5t98 -7.5t66 -3 q-14 -166 -130 -254t-306 -88q-236 0 -360 125t-124 371z" />
<glyph unicode="d" horiz-adv-x="1210" d="M66 483q0 504 362 504q223 0 289 -209v377q0 102 -86 102h-66q2 39 2 78t-2 78q328 0 479 6q-4 -197 -4 -611.5t4 -555.5q2 -96 89 -96h47q-2 -18 -2 -78t2 -78q-238 -4 -461 -4v203q-72 -233 -297 -234q-178 0 -267 118.5t-89 399.5zM406 483q0 -180 27.5 -260 t117.5 -80q166 0 166 287v109q0 143 -37 206.5t-119 63.5q-88 0 -121.5 -65.5t-33.5 -260.5z" />
<glyph unicode="e" horiz-adv-x="1048" d="M55 461q0 252 132 389t358 137q244 0 352 -149q93 -128 93 -337q0 -35 -3 -73h-600q6 -158 49 -224.5t137 -66.5q86 0 128 45t57 135q10 0 62 -4t97.5 -6t63.5 -2q-18 -162 -128 -253t-312 -91q-231 0 -358.5 126t-127.5 374zM387 512h215q31 0 43 12.5t12 53.5 q0 129 -30.5 187t-94.5 58q-70 0 -106.5 -68.5t-38.5 -242.5z" />
<glyph unicode="f" horiz-adv-x="708" d="M31 -6q2 18 2 80.5t-2 81.5h49q78 0 84 92q4 76 4 262q0 124 -2 297l-123 -4v155l121 -4v19q-1 18 -1 35q0 203 89 307q96 113 301 112q145 0 227 -63.5t82 -165.5q0 -143 -143 -143q-63 0 -100 33.5t-37 91.5q0 66 47 99q36 26 84 26q15 0 30 -2q-41 29 -102 28 q-98 0 -138 -69q-27 -48 -28 -141q0 -43 6 -95l8 -74l140 6v-155l-142 4q-1 -129 -1 -234q0 -210 6 -325q6 -92 81 -92h52v-162q-6 0 -58.5 1t-122 3t-116.5 2t-118 -2t-124 -3t-55 -1z" />
<glyph unicode="g" horiz-adv-x="1062" d="M20 -207q0 109 150 152q-102 51 -102 157q0 82 52 132.5t136 66.5q-209 84 -209 328q0 172 119 265t311 93q102 0 189 -22q18 80 71.5 131t134.5 51q80 0 125 -40t45 -112q0 -59 -29.5 -92t-82.5 -33q-51 0 -81 28t-30 77q0 41 25 69q-84 -14 -121 -102q190 -82 190 -313 q0 -176 -119.5 -271.5t-316.5 -95.5q-76 0 -137 12q-80 -6 -80 -45q0 -31 61.5 -43t249.5 -14q262 -2 358.5 -66.5t96.5 -197.5q0 -137 -135 -231.5t-395 -94.5q-476 0 -476 211zM178 -178q0 -115 314 -115q182 0 275 33t93 82q0 41 -75.5 54t-292.5 18q-125 2 -216 18 q-98 -31 -98 -90zM362 627q0 -129 27 -178.5t92 -49.5q68 0 92.5 48.5t24.5 179.5q0 129 -25.5 176t-91 47t-92.5 -49t-27 -174z" />
<glyph unicode="h" horiz-adv-x="1288" d="M31 -6q2 18 2 75.5t-2 86.5h32q57 0 77 20.5t24 87.5q4 57 4 440t-4 443q-4 66 -22.5 88t-80.5 22h-26v156q342 0 465 6q-8 -154 -8 -487v-170q70 225 315 225q164 0 244 -99q76 -94 76 -261q0 -9 -1 -17v-334q4 -68 26 -94t79 -26h20q-2 -29 -2 -86.5t2 -75.5 q-6 0 -56 1t-117.5 3t-112.5 2t-114 -2t-120 -3t-53 -1q2 18 2 75.5t-2 86.5h27q51 0 70.5 26.5t23.5 93.5q3 74 3 154.5t-3 167.5q-4 106 -35 158.5t-105 52.5q-168 0 -167 -287v-256q0 -63 20 -86.5t76 -23.5h28q-2 -40 -2 -80.5t2 -81.5q-6 0 -57 1t-119.5 3t-113.5 2 q-47 0 -117 -2t-123 -3t-55 -1z" />
<glyph unicode="i" horiz-adv-x="657" d="M31 803q2 39 2 78t-2 77q313 0 461 7q-2 -62 -2.5 -342.5t2.5 -356.5q2 -66 25.5 -88t80.5 -22h29v-162q-6 0 -58.5 1t-122 3t-116.5 2t-119 -2t-125 -3t-55 -1q2 18 2 75.5t-2 86.5h30q59 0 79 21.5t24 87t4 220t-4 213.5q-4 61 -23.5 83t-81.5 22h-28zM133 1278 q0 82 50 133t134 51t135.5 -50t51.5 -134q0 -86 -51.5 -137t-135.5 -51t-134 51t-50 137z" />
<glyph unicode="j" horiz-adv-x="628" d="M-150 -207q0 70 38 109t108 39q61 0 97 -34t36 -91q0 -55 -42 -96q-32 -31 -84 -30q-16 0 -34 3q39 -27 94 -27q72 0 110 50.5t40 168.5q2 127 2 437.5t-2 382.5q-6 98 -94 98h-37q2 39 2 78t-2 77q387 0 467 7q-8 -115 -8 -340v-600q0 -436 -394 -437q-137 0 -217 54.5 t-80 150.5zM184 1278q0 82 51.5 133t133.5 51q84 0 135 -50t51 -134q0 -86 -51 -137t-135 -51t-134.5 51t-50.5 137z" />
<glyph unicode="k" horiz-adv-x="1298" d="M31 -6q2 18 2 75.5t-2 86.5h30q57 0 78 25.5t25 95t4 433t-4 427.5q-4 66 -23.5 93t-79.5 27h-26v156q297 0 457 4q-4 -154 -5 -901l232 174q47 35 46 66q0 6 -1 11q-10 36 -74 36h-33q2 18 2 79.5t-2 78.5q188 -6 295 -7q47 0 117 2l122 3.5t56 1.5q-2 -40 -2 -79.5 t2 -78.5h-41q-90 0 -149.5 -23.5t-161.5 -93.5l-55 -37q160 -285 229 -377q49 -63 87 -89.5t89 -26.5h19q-2 -41 -2 -81.5t2 -80.5q-6 0 -60.5 1t-126 3t-121.5 2q-47 0 -120.5 -2t-128 -3t-56.5 -1v162h25q51 0 51 40q0 29 -27 78q-53 96 -125 197l-86 -57q0 -98 3 -138 q2 -68 23.5 -94t68.5 -26h24q-2 -41 -2 -81.5t2 -80.5q-6 0 -56 1t-117.5 3t-112.5 2q-47 0 -116 -2t-121 -3t-54 -1z" />
<glyph unicode="l" horiz-adv-x="653" d="M31 -6q2 18 2 75.5t-2 86.5h30q57 0 78 25.5t25 94.5q4 66 4 435.5t-4 427.5q-4 63 -24.5 90.5t-80.5 27.5h-24v156q377 0 457 6q-2 -119 -2.5 -586.5t2.5 -556.5q4 -68 25.5 -94t78.5 -26h31q-2 -29 -2 -86.5t2 -75.5q-6 0 -58.5 1t-122 3t-116.5 2t-120 -2t-125 -3 t-54 -1z" />
<glyph unicode="m" horiz-adv-x="1927" d="M31 -6q2 18 2 75.5t-2 86.5h30q57 0 77 24.5t26 95.5q4 68 4 212.5t-4 199.5q-4 61 -23.5 88t-81.5 27h-24v155q377 0 457 7v-197q72 219 315 219q260 0 309 -250q63 250 326 250q320 0 319 -363v-14q-1 -137 -1 -220.5t1 -113.5q4 -68 25.5 -94t81.5 -26h28 q-2 -29 -2 -86.5t2 -75.5q-6 0 -57 1t-119.5 3t-113.5 2q-47 0 -117 -2t-122 -3t-54 -1q2 18 2 75.5t-2 86.5h26q49 0 70 27.5t25 92.5q4 75 4 155.5t-4 166.5q-4 106 -35 158.5t-105 52.5q-90 0 -129 -79t-39 -236v-218q0 -68 21.5 -94t77.5 -26h26q-2 -29 -2 -86.5 t2 -75.5q-6 0 -56 1t-117.5 3t-112.5 2t-114 -2t-120 -3t-53 -1q2 18 2 75.5t-2 86.5h27q49 0 70.5 26.5t23.5 93.5q3 78 3 158.5t-3 163.5q-4 106 -35 158.5t-105 52.5q-90 0 -128.5 -79t-38.5 -236v-218q0 -68 22.5 -94t73.5 -26h28q-2 -29 -2 -86.5t2 -75.5q-6 0 -57 1 t-119.5 3t-113.5 2q-47 0 -117 -2t-123 -3t-55 -1z" />
<glyph unicode="n" horiz-adv-x="1292" d="M31 -6q2 18 2 80.5t-2 81.5h30q59 0 79 24.5t24 95.5q4 74 4 215.5t-4 196.5q-4 61 -23.5 88t-81.5 27h-24v155q377 0 457 7v-207q70 229 315 229q319 0 319 -377v-334q4 -70 26 -95t81 -25h22q-2 -29 -2 -86.5t2 -75.5q-6 0 -56 1t-118.5 3t-113.5 2q-47 0 -116 -2 t-120 -3t-53 -1q2 18 2 75.5t-2 86.5h27q49 0 69.5 27.5t24.5 92.5q3 74 3 154.5t-3 167.5q-4 106 -35 158.5t-105 52.5q-168 0 -167 -287v-246q0 -68 22.5 -94t73.5 -26h28q-2 -29 -2 -86.5t2 -75.5q-6 0 -57 1t-119.5 3t-113.5 2q-47 0 -117 -2t-123 -3t-55 -1z" />
<glyph unicode="o" horiz-adv-x="1112" d="M61 467q0 260 131.5 390t364.5 130q236 0 365 -129t129 -391q0 -254 -130 -380t-364 -126q-236 0 -366 127t-130 379zM403 467q0 -207 37 -274.5t117 -67.5q78 0 116 68.5t38 273.5q0 209 -38 284.5t-118 75.5q-78 0 -115 -74.5t-37 -285.5z" />
<glyph unicode="p" horiz-adv-x="1210" d="M31 -203h30q53 0 76 29t27 92.5t4 384t-4 384t-26.5 90t-80.5 26.5h-22v155q377 0 457 7v-205q68 227 301 227q180 0 266 -124t86 -394q0 -504 -357 -504q-229 0 -296 205v-252q0 -121 110 -121h31q-2 -18 -2 -79.5t2 -79.5q-6 0 -59.5 1t-124 3t-117.5 2t-120 -2 t-126 -3t-55 -1q2 18 2 79.5t-2 79.5zM492 477q0 -17 -1 -33q0 -147 33 -220q37 -81 129 -81q82 0 117 68t35 266q0 180 -26.5 256t-119.5 76q-84 0 -124.5 -73t-42.5 -259z" />
<glyph unicode="q" horiz-adv-x="1204" d="M66 473q0 514 387 514q246 0 329 -192q76 96 99 211q25 -2 91 -2t91 2q-16 -115 -21 -402q-2 -125 -2 -376t2 -322q2 -53 21.5 -81t69.5 -28h51q-2 -27 -2 -84t2 -75q-6 0 -61.5 1t-129 3t-123 2t-125 -2t-131 -3t-57.5 -1v159h53q49 0 77 30t28 79v282 q-70 -223 -307 -223q-178 0 -260 118t-82 390zM406 473q0 -86 5 -140t19 -101.5t43 -68t74 -20.5q84 0 123 71t45 259q1 19 0 37q0 299 -162 299q-86 0 -116.5 -67.5t-30.5 -268.5z" />
<glyph unicode="r" horiz-adv-x="950" d="M33 -6q2 18 2 75.5t-2 86.5h30q59 0 80 22.5t23 83.5q2 66 2 227.5t-2 206.5q-2 57 -23.5 82t-81.5 25h-24v155q332 0 412 7l-17 -230q55 252 275 252q106 0 165.5 -57.5t59.5 -161.5q0 -88 -44 -136t-124 -48q-70 0 -110 35.5t-40 99.5q0 70 50 106q44 33 101 34 q6 0 13 -1q-37 20 -88 21q-94 0 -145 -78t-51 -228v-311q0 -63 22.5 -84.5t87.5 -21.5h45v-162q-6 0 -60 1t-126 3t-121 2t-123 -2t-129 -3t-57 -1z" />
<glyph unicode="s" horiz-adv-x="987" d="M49 -8q18 140 19 261q0 40 -2 79q28 -4 55 -4l55 4q102 -231 338 -232q170 0 170 103q0 43 -46 68.5t-181 37.5q-207 16 -301.5 108.5t-94.5 233.5q0 150 114 244q111 92 294 92h8q125 -2 219 -63q33 -17 50 -18q7 0 12 3q14 10 24 62q27 -4 54 -4l53 4 q-16 -141 -17 -299q-27 2 -54.5 2t-57.5 -2q-70 172 -275 172q-88 0 -129 -26.5t-41 -67.5q0 -49 50.5 -74t205.5 -39q367 -37 367 -338q0 -158 -99.5 -248t-295.5 -90q-150 0 -283 86q-36 17 -56 17q-11 0 -18 -5q-18 -14 -26 -67q-28 4 -56 4z" />
<glyph unicode="t" horiz-adv-x="716" d="M29 805v127q270 12 321 383q14 -2 67.5 -2t67.5 2q-16 -127 -20 -365l207 11q-2 -16 -2 -78t2 -80l-207 2v-459q0 -121 15.5 -163t51.5 -44q69 0 69 148q0 32 -3 71h90q4 -43 4 -82q0 -129 -47 -206q-61 -100 -235 -101q-293 0 -289 318l6 518h-98z" />
<glyph unicode="u" horiz-adv-x="1263" d="M29 803v158q180 -2 223 -3q164 0 231 7q-6 -115 -6 -318v-274q0 -129 41 -180.5t98 -51.5q92 0 130 91.5t38 295.5v158q0 66 -28.5 91.5t-104.5 25.5h-20q2 18 2 79.5t-2 78.5q209 -2 256 -3q195 0 231 7q-6 -111 -6 -312v-368q2 -66 22.5 -97.5t69.5 -31.5h29v-156 q-369 0 -449 -6v196q-72 -229 -311 -229q-152 0 -240 93q-84 89 -84 273q0 9 1 17q2 47 2 168t-2 158q-2 72 -21.5 102.5t-71.5 30.5h-28z" />
<glyph unicode="v" horiz-adv-x="1161" d="M12 803q2 18 2 79.5t-2 78.5q186 -4 281 -5l323 5q-2 -40 -2 -79.5t2 -78.5h-32q-75 0 -75 -68q0 -21 7 -49q33 -139 131 -442q106 301 144 442q8 29 8 51q0 66 -74 66h-37q2 18 2 79.5t-2 78.5q160 -4 232 -5l229 5q-2 -16 -2 -78t2 -80h-31q-72 0 -108.5 -27.5 t-75.5 -130.5q-188 -489 -244 -672q-37 2 -130 2t-132 -2q-88 287 -240 676q-41 104 -63 125q-29 29 -90 29h-23z" />
<glyph unicode="w" horiz-adv-x="1753" d="M31 803v158q188 -6 293 -7l292 7q-2 -40 -2 -79.5t2 -78.5h-18q-71 0 -71 -70q0 -19 5 -43q35 -166 123 -444q98 293 129 432q5 27 6 49q0 27 -9 44q-15 32 -70 32h-25q2 18 2 79.5t-2 78.5q162 -6 260 -7l264 7q-2 -16 -2 -78t2 -80h-20q-72 0 -72 -67q0 -19 6 -44 q51 -225 123 -448q78 248 121 432q8 32 8 55q0 71 -69 72h-29q2 18 2 79.5t-2 78.5q147 -6 223 -7l223 7q-2 -16 -2 -78t2 -80h-36q-72 0 -109 -34t-74 -136q-145 -412 -219 -660q-39 2 -141.5 2t-140.5 -2q-86 326 -170 590q-96 -281 -183 -590q-33 2 -121 2t-120 -2 l-213 676q-31 94 -57.5 124t-90.5 30h-18z" />
<glyph unicode="x" horiz-adv-x="1245" d="M31 -4v160h41q76 0 125 26.5t110 96.5l154 176l-189 245q-45 61 -80.5 82t-109.5 21h-31v158q211 -4 330 -5l348 5q-2 -16 -2 -78t2 -80h-29q-51 0 -60 -31q-2 -6 -2 -14q0 -29 28 -74q18 -33 90 -125l114 131q27 29 27 57q0 10 -4 20q-14 36 -70 36h-30q2 18 2 79.5 t-2 78.5q125 -4 190 -5l213 5q-2 -16 -2 -78t2 -80h-45q-53 0 -87 -22.5t-108 -104.5l-157 -174q147 -195 196 -252q72 -94 191 -94h28q-2 -40 -2 -80t2 -80q-219 4 -335 4l-340 -4v160h28q45 0 56 32q2 7 2 16q0 29 -29 70l-88 119l-98 -123q-27 -35 -27 -62q0 -10 3 -19 q13 -34 65 -33h24q-2 -40 -2 -80t2 -80q-145 4 -219 4z" />
<glyph unicode="y" horiz-adv-x="1193" d="M18 803q2 18 2 79.5t-2 78.5q176 -6 308 -7l307 7q-2 -40 -2 -79.5t2 -78.5h-31q-74 0 -74 -65q0 -19 7 -44q57 -205 133 -415q119 346 137 415q7 25 7 45q0 64 -73 64h-34q2 18 2 79.5t-2 78.5q135 -6 237 -7l221 7v-158h-37q-68 0 -101.5 -26.5t-57.5 -84.5 q-115 -276 -240 -657q-78 -236 -179.5 -331t-258.5 -95q-117 0 -178.5 53t-61.5 141q0 80 48 127t122 47q154 0 154 -139q0 -66 -56 -107q-43 -32 -100 -33q-17 0 -35 3q41 -18 90 -18q121 0 189.5 83.5t134.5 294.5q-65 2 -114 2t-83 -2q-82 285 -219 631q-25 61 -51.5 86 t-81.5 25h-29z" />
<glyph unicode="z" horiz-adv-x="987" d="M37 0q2 18 2 70.5t-2 70.5q258 342 498 699h-113q-121 0 -177.5 -57.5t-66.5 -211.5h-117q10 107 11 220q0 87 -6 178q139 -8 356 -8h506q-1 -12 -2 -40q0 -13 1 -30q1 -51 3 -70l-504 -702h168q100 0 166.5 67.5t75.5 216.5q12 -2 58 -2t58 2q-16 -129 -15 -249 q0 -83 7 -160q-174 6 -350 6h-557z" />
<glyph unicode="{" horiz-adv-x="622" d="M68 586v84h24q63 0 93 32.5t22 108.5t-17.5 115t-37.5 135q-4 16 -7 22q-80 262 25.5 399.5t380.5 147.5l4 -100q-82 -10 -119 -44t-52 -129t13 -265q14 -125 17.5 -224.5t-50 -165t-169.5 -73.5q115 -12 168 -76t51 -157t-13 -206q-35 -236 -6 -344t160 -120l-4 -101 q-92 4 -164 19.5t-138.5 52.5t-97 97.5t-40 154.5t33.5 223q61 213 64 272q10 141 -117 142h-24z" />
<glyph unicode="|" horiz-adv-x="614" d="M246 535q0 25 18.5 42t43 17t43 -17.5t18.5 -41.5q0 -27 -18.5 -44.5t-43 -17.5t-43 17.5t-18.5 44.5zM246 690q0 25 17.5 43.5t44 18.5t44 -18.5t17.5 -43.5q0 -27 -17.5 -45t-44 -18t-44 18t-17.5 45zM246 844q0 27 18.5 44t43 17t43 -17.5t18.5 -43.5 q0 -25 -18.5 -42.5t-43 -17.5t-43 17.5t-18.5 42.5zM250 379q0 23 17.5 39t40 16t40 -16.5t17.5 -38.5q0 -25 -17.5 -41t-40 -16t-40 16t-17.5 41zM250 999q0 25 17.5 41.5t40 16.5t40 -16.5t17.5 -41.5q0 -23 -17.5 -39t-40 -16t-40 16t-17.5 39zM256 223q0 20 15.5 34.5 t36 14.5t35.5 -14t15 -35q0 -23 -15 -37t-35.5 -14t-36 14t-15.5 37zM256 1155.5q0 20.5 15.5 35.5t36 15t35.5 -15t15 -35.5t-15 -35t-35.5 -14.5t-36 14.5t-15.5 35zM266 67.5q0 16.5 12.5 29t29 12.5t28.5 -12.5t12 -29t-12 -28.5t-28.5 -12t-29 12t-12.5 28.5z M266 1310.5q0 16.5 12.5 29t29 12.5t28.5 -12.5t12 -29t-12 -28.5t-28.5 -12t-29 12t-12.5 28.5zM276 -88q0 12 9.5 21.5t21.5 9.5t21.5 -9.5t9.5 -21.5t-9.5 -21.5t-21.5 -9.5t-21.5 9.5t-9.5 21.5zM276 1466.5q0 12.5 9.5 21.5t21.5 9t21.5 -9t9.5 -21.5t-9.5 -21.5 t-21.5 -9t-21.5 9t-9.5 21.5zM287 -243.5q0 20.5 20.5 20.5t20.5 -20.5t-20.5 -20.5t-20.5 20.5zM287 1622q0 20 20.5 20t20.5 -20t-20.5 -20t-20.5 20z" />
<glyph unicode="}" horiz-adv-x="598" d="M63 1530l5 100q272 -10 374 -146q58 -77 58 -194q0 -91 -35 -207q-64 -204 -64 -292v-19q12 -102 115 -102h27v-84h-27q-33 0 -55.5 -8.5t-35.5 -24.5t-20.5 -35.5t-6.5 -49.5t4.5 -55.5t12.5 -64.5t17 -66l21 -69l12 -41q31 -106 34 -191v-21q0 -71 -19 -122 q-22 -57 -59.5 -98t-96 -65.5t-120 -36t-136.5 -13.5l-5 101q131 12 160 120q13 49 13 124q0 91 -19 220q-12 136 -12 213q0 89 51 150q53 63 168 76q-117 8 -171 73q-51 62 -51 155v10q3 99 19 225q19 111 19 189q0 42 -6 76q-15 95 -52 129t-119 44z" />
<glyph unicode="~" horiz-adv-x="1089" d="M201 1108q-24 72 -24 130q0 76 40 128q72 92 207 92q141 0 240 -143q63 -96 120 -96q51 0 70 45q8 19 8 50q0 41 -14 101l59 17q27 -73 27 -132q0 -72 -40 -123q-73 -93 -206 -94q-150 0 -242 144q-37 57 -60.5 77.5t-59.5 20.5q-49 0 -68 -44q-8 -19 -8 -50 q0 -41 14 -103z" />
<glyph unicode="&#xa1;" horiz-adv-x="567" d="M104 821q0 80 47.5 123t131.5 43q82 0 129 -44t47 -126q0 -80 -48.5 -126t-127.5 -46q-84 0 -131.5 47t-47.5 129zM105 -395q-23 48 -23 106q0 74 37 164q8 18 31.5 78.5t28.5 75.5l23 62q17 48 20 68.5t13.5 64.5t12.5 80l5 86q3 50 3 110q0 43 31 43q33 0 32 -43 q0 -76 5.5 -139.5t11.5 -105.5t22.5 -98.5t25.5 -81.5l36 -95q27 -70 39 -105q32 -88 32 -160q0 -61 -23 -110q-50 -109 -181 -109q-130 0 -182 109z" />
<glyph unicode="&#xa2;" horiz-adv-x="1093" d="M53 680q0 242 133 380t363 138h29l34 252l90 -14l-51 -244q139 -18 218 -84t79 -160q0 -70 -41 -107.5t-112 -37.5q-70 0 -107 35.5t-37 95.5q0 72 60 106q-43 12 -88 15l-68 -336l-57 -373q33 -16 92 -16q74 0 155 37q-84 27 -83 122q0 59 39.5 93t111.5 34 q70 0 110 -38.5t40 -114.5q0 -123 -113 -205t-305 -82q-49 0 -72 2l-37 -256l-92 17l53 251q-168 37 -256 161t-88 329zM373 688q0 -219 65 -299l70 338l49 326q-96 -10 -140 -93.5t-44 -271.5z" />
<glyph unicode="&#xa3;" horiz-adv-x="1196" d="M45 154q0 96 71.5 153.5t172.5 57.5q88 0 164 -17q-16 80 -76 176l-211 -8q2 16 2 58t-2 59q51 -6 139 -6q-47 68 -73.5 112.5t-50 119.5t-23.5 151q0 197 139 313.5t350 116.5q203 0 306.5 -88t103.5 -221q0 -211 -185 -211q-66 0 -104.5 34.5t-38.5 94.5q0 53 36 87.5 t101 34.5q39 0 70 -12q-16 53 -69.5 88t-137.5 35q-113 0 -176 -74q-62 -71 -62 -206q0 -43 5 -78q4 -35 16 -80t19 -68l27 -80l24 -69q160 0 233 6v-117l-203 6q28 -106 29 -193q0 -21 -2 -40q125 -51 225 -51q166 0 195 102l102 -14q4 -31 5 -61q0 -110 -61 -194 q-77 -108 -249 -108q-176 0 -315 98q-92 -92 -265 -92q-115 0 -173 50.5t-58 134.5zM143 129q0 -37 32 -61.5t89 -24.5q123 0 170 98q-96 74 -170 74q-121 0 -121 -86z" />
<glyph unicode="&#xa5;" horiz-adv-x="1273" d="M27 1227q2 23 2 94.5t-2 91.5q205 -6 323 -6l328 6q-2 -48 -2 -94.5t2 -91.5h-29q-78 0 -77 -75q0 -32 14 -77q47 -152 141 -360q111 264 137 362q14 42 14 76q0 17 -4 31q-10 43 -67 43h-29v186q160 -6 244 -6l223 6q-2 -48 -2 -94.5t2 -91.5h-28q-70 0 -107 -28 t-70 -101l-135 -307l166 6q-2 -23 -2 -77t2 -77l-225 8q-10 -20 -25.5 -57t-15.5 -39v-29l266 9q-2 -23 -2 -76t2 -78l-266 10v-92q0 -61 23.5 -87t95.5 -26h57q-2 -47 -2 -94t2 -94q-213 6 -354 6l-359 -6q2 23 2 94.5t-2 93.5h60q74 0 93 25t19 88v92l-258 -10v154l250 -9 l-45 125l-205 -8v154l156 -4q-47 133 -100 264q-41 100 -76 135t-105 35h-30z" />
<glyph unicode="&#xa6;" horiz-adv-x="614" d="M246 535q0 25 18.5 42t43 17t43 -17.5t18.5 -41.5q0 -27 -18.5 -44.5t-43 -17.5t-43 17.5t-18.5 44.5zM246 844q0 27 18.5 44t43 17t43 -17.5t18.5 -43.5q0 -25 -18.5 -42.5t-43 -17.5t-43 17.5t-18.5 42.5zM250 379q0 23 17.5 39t40 16t40 -16.5t17.5 -38.5 q0 -25 -17.5 -41t-40 -16t-40 16t-17.5 41zM250 999q0 25 17.5 41.5t40 16.5t40 -16.5t17.5 -41.5q0 -23 -17.5 -39t-40 -16t-40 16t-17.5 39zM256 223q0 20 15.5 34.5t36 14.5t35.5 -14t15 -35q0 -23 -15 -37t-35.5 -14t-36 14t-15.5 37zM256 1155.5q0 20.5 15.5 35.5 t36 15t35.5 -15t15 -35.5t-15 -35t-35.5 -14.5t-36 14.5t-15.5 35zM266 67.5q0 16.5 12.5 29t29 12.5t28.5 -12.5t12 -29t-12 -28.5t-28.5 -12t-29 12t-12.5 28.5zM266 1310.5q0 16.5 12.5 29t29 12.5t28.5 -12.5t12 -29t-12 -28.5t-28.5 -12t-29 12t-12.5 28.5zM276 -88 q0 12 9.5 21.5t21.5 9.5t21.5 -9.5t9.5 -21.5t-9.5 -21.5t-21.5 -9.5t-21.5 9.5t-9.5 21.5zM276 1466.5q0 12.5 9.5 21.5t21.5 9t21.5 -9t9.5 -21.5t-9.5 -21.5t-21.5 -9t-21.5 9t-9.5 21.5zM287 -243.5q0 20.5 20.5 20.5t20.5 -20.5t-20.5 -20.5t-20.5 20.5zM287 1622 q0 20 20.5 20t20.5 -20t-20.5 -20t-20.5 20z" />
<glyph unicode="&#xa7;" horiz-adv-x="1714" d="M16 -178q10 68 53.5 115t114.5 47q61 0 97 -33q28 -27 28 -73q0 -11 -2 -23q-10 -61 -61 -93q-30 -18 -69 -17q-29 0 -62 9q27 -74 123 -73q80 0 130 56t97 227t94 499q33 221 91.5 384t137 259t149.5 147.5t163 92.5l10 -23q-84 -82 -130 -162t-93 -254t-94 -481 q-35 -221 -88.5 -382t-107.5 -248t-124 -137t-123 -62.5t-119 -12.5q-113 0 -171 69q-47 55 -46 130q-1 19 2 39zM608 -287q82 82 129 162t94.5 255t94.5 480q25 158 58.5 285t69.5 213t80 150.5t83.5 100.5t88 58.5t86 28.5t83.5 6q125 0 182 -71q46 -57 46 -130 q0 -19 -3 -39q-8 -68 -51 -113.5t-117 -45.5q-59 0 -95 33q-29 28 -30 74q0 10 2 22q8 61 58 92q29 18 69 18q29 0 63 -10q-25 74 -112 74q-80 0 -132 -55.5t-101.5 -227.5t-96.5 -500q-25 -180 -71 -322t-96 -231.5t-118.5 -158t-125 -103t-128.5 -67.5z" />
<glyph unicode="&#xa8;" horiz-adv-x="1091" d="M248 1229q0 53 33.5 86t85.5 33q53 0 86.5 -33t33.5 -86q0 -55 -32.5 -87t-87.5 -32q-51 0 -85 33t-34 86zM600 1229q0 53 34 86t85 33q53 0 87 -33t34 -86q0 -55 -34 -87t-87 -32q-51 0 -85 33t-34 86z" />
<glyph unicode="&#xa9;" horiz-adv-x="1726" d="M113 705q0 342 202.5 540.5t548.5 198.5q354 0 553 -197.5t199 -541.5q0 -346 -195.5 -542t-556.5 -196q-362 0 -556.5 196t-194.5 542zM248 704.5q0 -290.5 158.5 -460.5t457.5 -170q305 0 460 169t155 462q0 291 -158 461.5t-457 170.5t-457.5 -171t-158.5 -461.5z M444 709q0 215 107.5 328.5t292.5 113.5q129 0 225 -68q20 -13 35 -12q30 0 37 53h104q-23 -127 -22 -299q-34 2 -67.5 2t-65.5 -2q-10 88 -62.5 137.5t-128.5 49.5q-98 0 -140 -66.5t-42 -236.5q0 -174 44 -237.5t126 -63.5q182 0 188 208q43 -2 86 -2l86 2 q-4 -176 -94 -261t-285 -85q-213 0 -318.5 101.5t-105.5 337.5z" />
<glyph unicode="&#xaa;" horiz-adv-x="1013" d="M113 412q2 50 2 100.5t-2 101.5q90 -4 374.5 -4t376.5 4v-202q-92 2 -376.5 2t-374.5 -2zM135 889q0 207 389 227v58q0 88 -30 129q-29 39 -109 39q-4 0 -8 -1q-33 0 -60 -6q72 -16 72 -88q0 -45 -30.5 -71.5t-84.5 -26.5q-49 0 -78.5 27.5t-29.5 76.5q0 84 86 131.5 t207 47.5q162 0 225.5 -71t63.5 -214v-219q0 -51 7 -68.5t23 -17.5q34 0 34 90q0 29 -3 67l59 5l2 -50q0 -105 -30 -163q-37 -72 -142 -72q-137 0 -166 110q-66 -111 -204 -110q-90 0 -141.5 43t-51.5 127zM371 932q0 -90 67 -90q63 0 86 61v166q-153 -12 -153 -137z" />
<glyph unicode="&#xab;" horiz-adv-x="890" d="M86 449v135l371 295l24 -21q-23 -74 -81 -177t-113 -171q51 -63 110.5 -165.5t83.5 -172.5l-26 -20q-189 160 -369 297zM422 449v135l371 295l24 -21q-23 -74 -81 -177t-113 -171q51 -63 110.5 -165.5t83.5 -172.5l-26 -20q-189 160 -369 297z" />
<glyph unicode="&#xad;" horiz-adv-x="577" d="M37 412v202q250 -8 506 0q-4 -102 0 -202q-256 8 -506 0z" />
<glyph unicode="&#xae;" horiz-adv-x="1726" d="M113 705q0 342 202.5 540.5t548.5 198.5q354 0 553 -197.5t199 -541.5q0 -346 -195.5 -542t-556.5 -196q-362 0 -556.5 196t-194.5 542zM248 704.5q0 -290.5 158.5 -460.5t457.5 -170q305 0 460 169t155 462q0 291 -158 461.5t-457 170.5t-457.5 -171t-158.5 -461.5z M432 311v125h41q68 0 70 70q2 39 2 219t-2 219q-2 66 -64 66h-47v123q82 -4 248 -5h219q184 0 271 -54t87 -169q0 -82 -51 -134t-133 -73q61 -16 92 -58t45 -110q23 -117 60 -116q25 0 27 46q1 8 1 16q0 38 -12 77q2 0 35 4l33 2q11 -47 11 -87q0 -59 -24 -105 q-39 -78 -159 -78q-125 0 -172 53t-54 166q-6 94 -41.5 129t-105.5 35h-27q0 -123 4 -164q2 -72 64 -72h39q-1 -32 -1 -63t1 -62q-145 4 -227 4zM782 743h70q80 0 111.5 35t31.5 109q0 66 -27.5 96.5t-99.5 30.5h-34q-43 0 -48 -47q-4 -70 -4 -224z" />
<glyph unicode="&#xaf;" horiz-adv-x="1089" d="M246 1147q4 82 0 166q281 -8 561 0q-4 -84 0 -166q-280 8 -561 0z" />
<glyph unicode="&#xb0;" horiz-adv-x="700" d="M61 1091.5q0 161.5 79 244.5t210 83q137 0 213 -82t76 -245q0 -160 -79 -243t-210 -83q-137 0 -213 82t-76 243.5zM172 1092q0 -139 45 -195.5t133 -56.5q178 0 178 252q0 137 -46 194t-132 57q-178 1 -178 -251z" />
<glyph unicode="&#xb1;" d="M158 428v170q223 0 397 -27q-20 133 -27 398h170q0 -201 -26 -398q197 27 399 27v-170q-270 6 -399 27q14 -119 22 -301q178 0 371 4q-2 -39 -2 -78.5t2 -79.5q-224 4 -449.5 4t-451.5 -4q2 39 2 78.5t-2 79.5q193 -4 366 -4q8 190 25 301q-133 -21 -397 -27z" />
<glyph unicode="&#xb2;" horiz-adv-x="1112" d="M70 121q0 276 305 399q154 63 216 134t62 177q0 98 -55 152.5t-166 54.5q-74 0 -136.5 -29.5t-94.5 -84.5q33 12 78 12q72 0 112.5 -39t40.5 -106.5t-45 -105.5t-123 -38t-124 51.5t-46 139.5q0 162 123 255t330 93q215 0 329.5 -87t114.5 -239q0 -334 -493 -414 q-242 -39 -316 -174q73 70 222 71q68 0 153 -15q57 -10 85 -14.5t79 -10.5q26 -3 44.5 -3t31.5 3q25 6 53.5 19.5t38.5 43.5q6 19 6 42q0 14 -2 30l100 15q39 -96 39 -190q0 -144 -75 -226q-77 -84 -216 -86q-72 0 -135 22.5t-101 49t-110 83.5q-80 66 -147 66 q-53 0 -84 -31q20 6 37 6q43 0 67.5 -25.5t24.5 -66.5t-27.5 -65.5t-75.5 -24.5q-53 0 -86.5 42t-33.5 114z" />
<glyph unicode="&#xb3;" horiz-adv-x="1210" d="M74 41q0 92 53 148.5t137 56.5q78 0 122 -41t44 -113t-47 -109.5t-125 -37.5q-20 0 -45 4q72 -125 264 -125q283 0 283 297q0 274 -287 274h-63v121h53q129 2 193.5 68.5t64.5 210.5q0 113 -59.5 177t-169.5 64q-178 0 -250 -108q23 8 57 8q74 0 117 -38t43 -105.5 t-44 -106.5t-118 -39q-82 0 -127 49t-45 133q0 150 131 253.5t350 103.5t342 -98.5t123 -274.5q0 -270 -283 -342q168 -20 257.5 -116.5t89.5 -243.5q0 -205 -153 -311.5t-429 -106.5q-217 0 -348 97t-131 251z" />
<glyph unicode="&#xb4;" horiz-adv-x="1089" d="M324 1110q141 193 262 268q39 21 69 21q11 0 21 -2q37 -10 56 -37q12 -16 12 -36q0 -14 -6 -31q-13 -40 -60 -68q-141 -90 -338 -140z" />
<glyph unicode="&#xb6;" horiz-adv-x="1144" d="M94 922q0 248 156 367.5t442 119.5h361v-152h-47q-102 0 -103 -100l2 -1114q0 -455 -395 -455q-147 0 -222 58.5t-75 148.5q0 72 39 109t104 37q63 0 97 -33t34 -92q0 -49 -32.5 -86t-94.5 -49q33 -14 68 -15q86 0 124 63.5t38 223.5v477q-244 4 -370 130t-126 362z" />
<glyph unicode="&#xb7;" horiz-adv-x="595" d="M115 502q0 78 52 127t132 49q86 0 135 -49t49 -129q0 -82 -48 -128t-136 -46q-84 0 -134 45t-50 131z" />
<glyph unicode="&#xb8;" horiz-adv-x="1089" d="M313 -381l47 41q59 -72 136 -72q113 0 112 107q0 59 -50 82q-23 10 -50 10q-33 0 -72 -14l-24 47q133 63 143 194l61 -12q1 -8 1 -15q0 -76 -58 -132q15 1 30 1q74 0 130 -35q68 -42 67 -128q0 -90 -65.5 -142.5t-179.5 -52.5q-158 0 -228 121z" />
<glyph unicode="&#xb9;" horiz-adv-x="909" d="M70 -2q2 18 2 81.5t-2 80.5h104q66 0 87.5 26.5t23.5 85.5q2 29 2 217.5t-2 317.5q-64 -33 -134 -33q-35 0 -71 8q2 18 2 83t-2 83h41q14 -1 27 0q127 0 187 53q67 59 79 197q29 -2 111.5 -2t111.5 2q-8 -168 -10 -254q-1 -48 -2 -180q0 -66 1 -153q1 -261 3 -339 q0 -59 23.5 -85.5t86.5 -26.5h99q-2 -16 -2 -80t2 -82q-246 6 -383 6z" />
<glyph unicode="&#xba;" horiz-adv-x="927" d="M117 412v202q90 -4 348 -4t350 4q-2 -51 -2 -101.5t2 -100.5q-92 2 -350 2t-348 -2zM125 1067q0 180 92 272.5t254 92.5q166 0 256 -91.5t90 -275.5q0 -176 -91 -264t-255 -88t-255 89t-91 265zM362 1065q0 -145 26 -192.5t83 -47.5q55 0 83 48.5t28 191.5q0 150 -28 203 t-85 53q-53 0 -80 -53t-27 -203z" />
<glyph unicode="&#xbb;" horiz-adv-x="890" d="M74 858l26 21l371 -295v-135q-127 -94 -371 -297l-24 20q25 70 82 172t110 166q-55 68 -113 171t-81 177zM410 858l26 21l371 -295v-135q-127 -94 -371 -297l-24 20q25 70 82 172t110 166q-55 68 -113 171t-81 177z" />
<glyph unicode="&#xbc;" horiz-adv-x="774" d="M18 705q0 18 13.5 31.5t34.5 13.5q18 0 31.5 -13.5t13.5 -31.5q0 -20 -13.5 -34t-31.5 -14q-48 1 -48 48zM96 106v48l322 432q23 -2 79 -2t78 2v-426l99 2v-58l-99 2v-24q0 -43 50 -43h49q-1 -20 -1 -41.5t1 -42.5q-133 4 -207 4l-207 -4v84h51q49 0 49 41v29 q-63 0 -161.5 -1.5t-102.5 -1.5zM154 705q0 39 41 38q39 0 38 -38q0 -41 -38 -41q-41 0 -41 41zM158 821v94h69q61 0 62 56v266l-119 -2q2 10 2 50t-2 50h37q158 0 178 119q12 -2 56 -2t59 2q-10 -141 -11 -262v-221q0 -55 62 -56h65v-94q-147 4 -229 4zM186 158h174v258z M287 705q0 35 37 34q14 0 24 -10t10 -24q0 -37 -34 -37q-37 0 -37 37zM416 705q0 35 37 34q14 0 24 -10t10 -24q0 -37 -34 -37q-37 0 -37 37zM541 705q0 39 41 38q39 0 39 -38q0 -41 -39 -41q-41 0 -41 41zM664 705q0 18 13 31.5t34 13.5q18 0 31.5 -13.5t13.5 -31.5 q0 -20 -13.5 -34t-31.5 -14q-47 1 -47 48z" />
<glyph unicode="&#xbd;" horiz-adv-x="774" d="M18 705q0 18 13.5 31.5t34.5 13.5q18 0 31.5 -13.5t13.5 -31.5q0 -20 -13.5 -34t-31.5 -14q-48 1 -48 48zM117 14q0 84 50 138.5t144 109.5q66 35 93.5 67.5t27.5 78.5q0 106 -115 106q-92 0 -124 -55q27 10 55 10q82 0 82 -70q0 -31 -25.5 -50t-71 -19t-72 24.5 t-26.5 69.5q0 80 68.5 125t177.5 45q131 0 193.5 -48t62.5 -128q0 -92 -58.5 -135t-177.5 -74q-176 -45 -219 -125q45 45 129 45q43 0 97 -12q54 -17 97 -17q16 0 30 2q46 7 46 48q0 6 -1 14l53 6q22 -54 21 -105q0 -50 -42 -88q-43 -39 -116 -38q-80 0 -181 61 q-53 31 -93 31q-28 0 -50 -15q53 0 53 -38.5t-47 -38.5q-61 -1 -61 75zM154 705q0 39 41 38q39 0 38 -38q0 -41 -38 -41q-41 0 -41 41zM158 821v94h69q61 0 62 56v266l-119 -2q2 10 2 50t-2 50h37q158 0 178 119q12 -2 56 -2t59 2q-10 -141 -11 -262v-221q0 -55 62 -56h65 v-94q-147 4 -229 4zM287 705q0 35 37 34q14 0 24 -10t10 -24q0 -37 -34 -37q-37 0 -37 37zM416 705q0 35 37 34q14 0 24 -10t10 -24q0 -37 -34 -37q-37 0 -37 37zM541 705q0 39 41 38q39 0 39 -38q0 -41 -39 -41q-41 0 -41 41zM664 705q0 18 13 31.5t34 13.5 q18 0 31.5 -13.5t13.5 -31.5q0 -20 -13.5 -34t-31.5 -14q-47 1 -47 48z" />
<glyph unicode="&#xbe;" horiz-adv-x="774" d="M18 705q0 18 13.5 31.5t34.5 13.5q18 0 31.5 -13.5t13.5 -31.5q0 -20 -13.5 -34t-31.5 -14q-48 1 -48 48zM96 106v48l322 432q23 -2 79 -2t78 2v-426l99 2v-58l-99 2v-24q0 -43 50 -43h49q-1 -20 -1 -41.5t1 -42.5q-133 4 -207 4l-207 -4v84h51q49 0 49 41v29 q-63 0 -161.5 -1.5t-102.5 -1.5zM111 969q0 43 30.5 68.5t75.5 25.5t69.5 -20.5t24.5 -53.5q0 -74 -92 -74q-16 0 -33 5q39 -43 123 -43q135 0 135 118q0 113 -139 113h-26v59h26q127 0 127 113q0 100 -113 100q-84 0 -118 -51q29 8 51 8q78 0 78 -65q0 -31 -23.5 -50.5 t-68.5 -19.5t-73 24.5t-28 69.5q0 74 72 119t182 45q115 0 180.5 -46t65.5 -124q0 -111 -135 -145q164 -29 164 -154q0 -186 -306 -186q-115 0 -182 45t-67 119zM154 705q0 39 41 38q39 0 38 -38q0 -41 -38 -41q-41 0 -41 41zM186 158h174v258zM287 705q0 35 37 34 q14 0 24 -10t10 -24q0 -37 -34 -37q-37 0 -37 37zM416 705q0 35 37 34q14 0 24 -10t10 -24q0 -37 -34 -37q-37 0 -37 37zM541 705q0 39 41 38q39 0 39 -38q0 -41 -39 -41q-41 0 -41 41zM664 705q0 18 13 31.5t34 13.5q18 0 31.5 -13.5t13.5 -31.5q0 -20 -13.5 -34t-31.5 -14 q-47 1 -47 48z" />
<glyph unicode="&#xbf;" horiz-adv-x="1071" d="M59 -109q0 170 103.5 271.5t318.5 177.5q63 23 86 39t23 41q0 45 -62 45q-106 0 -211 -74l-26 62q133 98 280 98q80 0 128.5 -38t48.5 -103q0 -53 -32 -93.5t-102 -83.5q-190 -117 -190 -319q0 -119 60.5 -188.5t185.5 -69.5q174 0 237 131q-43 -16 -92 -16 q-74 0 -117 42t-43 115q0 70 49.5 113t131.5 43q88 0 136 -53.5t48 -151.5q0 -168 -128 -274.5t-353 -106.5q-240 0 -360 105.5t-120 287.5zM356 819q0 80 47.5 125t129 45t129 -45t47.5 -127q0 -78 -48.5 -124t-128.5 -46q-82 0 -129 46t-47 126z" />
<glyph unicode="&#xc0;" horiz-adv-x="1810" d="M57 -4v190h54q86 0 133 40t86 141l397 1058q117 -6 182 -6l183 6q57 -164 202 -535l209 -525q43 -102 84 -140.5t103 -38.5h63v-190q-268 4 -420 4l-422 -4v190h82q74 0 92 51q7 19 7 44q0 42 -19 102l-16 49q-127 4 -281 4q-103 0 -217 -2l-18 -55q-20 -58 -20 -99 q0 -27 8 -46q22 -48 104 -48h78q0 -14 -1 -95t-1 -95q-209 4 -326 4zM600 555q106 -2 209.5 -2t204.5 2q-111 315 -209 565zM615 1758q0 52 47 69q15 5 32 5q37 0 84 -24q117 -72 258 -264l-16 -24q-197 51 -340 143q-65 39 -65 95z" />
<glyph unicode="&#xc1;" horiz-adv-x="1810" d="M57 -4v190h54q86 0 133 40t86 141l397 1058q117 -6 182 -6l183 6q57 -164 202 -535l209 -525q43 -102 84 -140.5t103 -38.5h63v-190q-268 4 -420 4l-422 -4v190h82q74 0 92 51q7 19 7 44q0 42 -19 102l-16 49q-127 4 -281 4q-103 0 -217 -2l-18 -55q-20 -58 -20 -99 q0 -27 8 -46q22 -48 104 -48h78q0 -14 -1 -95t-1 -95q-209 4 -326 4zM600 555q106 -2 209.5 -2t204.5 2q-111 315 -209 565zM811 1544q141 193 262 268q39 21 70 22q11 0 20 -3q37 -10 57 -37q12 -16 11 -36q0 -14 -5 -31q-13 -40 -61 -68q-141 -90 -338 -139z" />
<glyph unicode="&#xc2;" horiz-adv-x="1810" d="M57 -4v190h54q86 0 133 40t86 141l397 1058q117 -6 182 -6l183 6q57 -164 202 -535l209 -525q43 -102 84 -140.5t103 -38.5h63v-190q-268 4 -420 4l-422 -4v190h82q74 0 92 51q7 19 7 44q0 42 -19 102l-16 49q-127 4 -281 4q-103 0 -217 -2l-18 -55q-20 -58 -20 -99 q0 -27 8 -46q22 -48 104 -48h78q0 -14 -1 -95t-1 -95q-209 4 -326 4zM600 1526q61 147 236 299h137q61 -49 127.5 -132t105.5 -167l-18 -23q-61 20 -147.5 68.5t-141.5 95.5q-53 -45 -138 -94t-143 -68zM600 555q106 -2 209.5 -2t204.5 2q-111 315 -209 565z" />
<glyph unicode="&#xc3;" horiz-adv-x="1810" d="M57 -4v190h54q86 0 133 40t86 141l397 1058q117 -6 182 -6l183 6q57 -164 202 -535l209 -525q43 -102 84 -140.5t103 -38.5h63v-190q-268 4 -420 4l-422 -4v190h82q74 0 92 51q7 19 7 44q0 42 -19 102l-16 49q-127 4 -281 4q-103 0 -217 -2l-18 -55q-20 -58 -20 -99 q0 -27 8 -46q22 -48 104 -48h78q0 -14 -1 -95t-1 -95q-209 4 -326 4zM600 555q106 -2 209.5 -2t204.5 2q-111 315 -209 565zM604 1538q-21 62 -20 111q0 64 33 107q60 77 176 77q119 0 200 -121q55 -82 103 -82q43 0 58 39q7 17 7 43q0 34 -12 84l51 14q22 -61 22 -110 q0 -62 -34 -105q-61 -78 -174 -77q-127 0 -203 120q-33 47 -52.5 64.5t-49.5 17.5q-41 0 -58 -38q-7 -16 -7 -41q0 -35 13 -87z" />
<glyph unicode="&#xc4;" horiz-adv-x="1810" d="M57 -4v190h54q86 0 133 40t86 141l397 1058q117 -6 182 -6l183 6q57 -164 202 -535l209 -525q43 -102 84 -140.5t103 -38.5h63v-190q-268 4 -420 4l-422 -4v190h82q74 0 92 51q7 19 7 44q0 42 -19 102l-16 49q-127 4 -281 4q-103 0 -217 -2l-18 -55q-20 -58 -20 -99 q0 -27 8 -46q22 -48 104 -48h78q0 -14 -1 -95t-1 -95q-209 4 -326 4zM600 555q106 -2 209.5 -2t204.5 2q-111 315 -209 565zM608 1663q0 53 34 86t85 33q53 0 87 -33t34 -86q0 -55 -33 -87t-88 -32q-51 0 -85 33t-34 86zM961 1663q0 53 33.5 86t84.5 33q53 0 87 -33t34 -86 q0 -55 -33.5 -87t-87.5 -32q-51 0 -84.5 33t-33.5 86z" />
<glyph unicode="&#xc5;" horiz-adv-x="1810" d="M57 -4v190h54q86 0 133 40t86 141l397 1058q117 -6 182 -6l183 6q57 -164 202 -535l209 -525q43 -102 84 -140.5t103 -38.5h63v-190q-268 4 -420 4l-422 -4v190h82q74 0 92 51q7 19 7 44q0 42 -19 102l-16 49q-127 4 -281 4q-103 0 -217 -2l-18 -55q-20 -58 -20 -99 q0 -27 8 -46q22 -48 104 -48h78q0 -14 -1 -95t-1 -95q-209 4 -326 4zM600 555q106 -2 209.5 -2t204.5 2q-111 315 -209 565zM723 1710q0 84 49 132t133 48t134.5 -49t50.5 -131q0 -84 -49.5 -134t-133.5 -50t-134 50t-50 134zM811 1710q0 -104 96 -104q43 0 68.5 27.5 t25.5 76.5q0 47 -25.5 72.5t-68.5 25.5q-96 0 -96 -98z" />
<glyph unicode="&#xc6;" horiz-adv-x="2232" d="M57 -4v190h54q86 0 140 40t118 141q266 420 438 729q22 38 22 68q0 17 -7 31q-19 40 -87 40h-41v184q137 -10 488 -10q25 0 187.5 1t330.5 1q371 0 467 12q-13 -190 -13 -415v-115q-23 2 -93 2t-93 -2v14q0 186 -64.5 251t-207.5 65h-219q-111 0 -117 -115 q-4 -59 -4 -334h67q109 0 153 45t44 154v53h152q-10 -297 -11 -313q0 -145 11 -320q-38 2 -75 2t-73 -2v47q-2 115 -45 163t-160 48h-63q0 -289 4 -342q4 -68 33.5 -95.5t87.5 -27.5h215q152 0 215 79t63 272v20q25 -2 100.5 -2t100.5 2q-20 -217 -21 -567q-96 8 -417 8 q-512 2 -578 2q-287 0 -377 -4q2 20 2 94t-2 96h80q66 0 92.5 32t32.5 99q4 45 4 127q-94 2 -185.5 2t-180.5 -2l-31 -65q-35 -73 -35 -118q0 -74 94 -75h60q-2 -29 -2 -190q-211 4 -328 4zM686 561q209 0 305 2q1 108 1 198q0 224 -7 331q-141 -230 -299 -531z" />
<glyph unicode="&#xc7;" horiz-adv-x="1495" d="M80 709q0 371 187.5 558t500.5 187q205 0 360 -90q54 -32 81 -32q8 0 14 3q25 12 32 90q18 -2 84 -2t84 2q-14 -80 -25 -253q-10 -146 -10 -245q0 -18 1 -34q-62 4 -124 4t-122 -4q-18 176 -86 268t-228 92q-172 0 -248.5 -121.5t-76.5 -422.5q0 -166 23.5 -278 t68.5 -169t98.5 -79.5t124.5 -22.5q156 0 244 101t92 290q43 -2 132 -2t134 2q-8 -303 -145 -441.5t-457 -146.5q-6 -59 -55 -108q15 1 29 1q74 0 131 -35q68 -42 67 -128q0 -90 -65.5 -142.5t-180.5 -52.5q-158 0 -227 121l47 41q59 -72 135 -72q113 0 113 107q0 59 -50 82 q-23 10 -51 10q-33 0 -71 -14l-25 47q111 53 136 143q-328 8 -500 183.5t-172 562.5z" />
<glyph unicode="&#xc8;" horiz-adv-x="1501" d="M57 -4v190h72q68 0 94.5 32t30.5 99q6 78 6 387.5t-4 393.5q-4 72 -31.5 100.5t-85.5 28.5h-82v186q8 0 174 -2t220 -2h518q354 0 467 14q-13 -192 -13 -417v-115h-188q0 199 -61.5 265.5t-208.5 66.5h-220q-111 0 -116 -115q-6 -88 -6 -334h67q109 0 153 45t44 154v53 h151q-10 -297 -10 -313q0 -145 10 -320q-38 2 -74.5 2t-72.5 -2v47q-2 115 -45 163t-160 48h-63q0 -262 6 -342q4 -68 33.5 -95.5t87.5 -27.5h215q156 0 216 81t60 290q25 -2 101.5 -2t101.5 2q-20 -217 -21 -567q-143 10 -440 10h-539q-53 0 -146 -1t-166 -2t-75 -1z M523 1758q0 52 46 69q15 5 33 5q37 0 84 -24q117 -72 258 -264l-16 -24q-197 51 -340 143q-65 39 -65 95z" />
<glyph unicode="&#xc9;" horiz-adv-x="1501" d="M57 -4v190h72q68 0 94.5 32t30.5 99q6 78 6 387.5t-4 393.5q-4 72 -31.5 100.5t-85.5 28.5h-82v186q8 0 174 -2t220 -2h518q354 0 467 14q-13 -192 -13 -417v-115h-188q0 199 -61.5 265.5t-208.5 66.5h-220q-111 0 -116 -115q-6 -88 -6 -334h67q109 0 153 45t44 154v53 h151q-10 -297 -10 -313q0 -145 10 -320q-38 2 -74.5 2t-72.5 -2v47q-2 115 -45 163t-160 48h-63q0 -262 6 -342q4 -68 33.5 -95.5t87.5 -27.5h215q156 0 216 81t60 290q25 -2 101.5 -2t101.5 2q-20 -217 -21 -567q-143 10 -440 10h-539q-53 0 -146 -1t-166 -2t-75 -1z M678 1544q141 193 262 268q39 21 70 22q11 0 20 -3q37 -10 56 -37q12 -16 12 -36q0 -14 -5 -31q-13 -40 -61 -68q-141 -90 -338 -139z" />
<glyph unicode="&#xca;" horiz-adv-x="1501" d="M57 -4v190h72q68 0 94.5 32t30.5 99q6 78 6 387.5t-4 393.5q-4 72 -31.5 100.5t-85.5 28.5h-82v186q8 0 174 -2t220 -2h518q354 0 467 14q-13 -192 -13 -417v-115h-188q0 199 -61.5 265.5t-208.5 66.5h-220q-111 0 -116 -115q-6 -88 -6 -334h67q109 0 153 45t44 154v53 h151q-10 -297 -10 -313q0 -145 10 -320q-38 2 -74.5 2t-72.5 -2v47q-2 115 -45 163t-160 48h-63q0 -262 6 -342q4 -68 33.5 -95.5t87.5 -27.5h215q156 0 216 81t60 290q25 -2 101.5 -2t101.5 2q-20 -217 -21 -567q-143 10 -440 10h-539q-53 0 -146 -1t-166 -2t-75 -1z M489 1526q61 147 236 299h137q61 -49 128 -132t106 -167l-19 -23q-61 20 -147 68.5t-142 95.5q-53 -45 -138 -94t-142 -68z" />
<glyph unicode="&#xcb;" horiz-adv-x="1501" d="M57 -4v190h72q68 0 94.5 32t30.5 99q6 78 6 387.5t-4 393.5q-4 72 -31.5 100.5t-85.5 28.5h-82v186q8 0 174 -2t220 -2h518q354 0 467 14q-13 -192 -13 -417v-115h-188q0 199 -61.5 265.5t-208.5 66.5h-220q-111 0 -116 -115q-6 -88 -6 -334h67q109 0 153 45t44 154v53 h151q-10 -297 -10 -313q0 -145 10 -320q-38 2 -74.5 2t-72.5 -2v47q-2 115 -45 163t-160 48h-63q0 -262 6 -342q4 -68 33.5 -95.5t87.5 -27.5h215q156 0 216 81t60 290q25 -2 101.5 -2t101.5 2q-20 -217 -21 -567q-143 10 -440 10h-539q-53 0 -146 -1t-166 -2t-75 -1z M500 1663q0 53 33.5 86t84.5 33q53 0 87 -33t34 -86q0 -55 -32.5 -87t-88.5 -32q-51 0 -84.5 33t-33.5 86zM852 1663q0 53 34 86t85 33q53 0 87 -33t34 -86q0 -55 -34 -87t-87 -32q-51 0 -85 33t-34 86z" />
<glyph unicode="&#xcc;" horiz-adv-x="876" d="M61 -4q2 21 2 94.5t-2 95.5h82q63 0 85 22.5t26 78.5q4 88 4 420.5t-4 408.5q-4 61 -27.5 86t-79.5 25h-86q2 23 2 94.5t-2 91.5q244 -6 379 -6q59 0 149.5 1t157 3t70.5 2q-2 -20 -2 -92t2 -94h-86q-55 0 -78.5 -24.5t-27.5 -86.5q-5 -70 -6 -320q0 -42 1 -88 q1 -327 5 -421q4 -55 26.5 -78t83.5 -23h80v-190q-240 4 -375 4zM148 1758q0 52 47 69q15 5 32 5q37 0 84 -24q117 -72 258 -264l-16 -24q-197 51 -340 143q-65 39 -65 95z" />
<glyph unicode="&#xcd;" horiz-adv-x="876" d="M61 -4q2 21 2 94.5t-2 95.5h82q63 0 85 22.5t26 78.5q4 88 4 420.5t-4 408.5q-4 61 -27.5 86t-79.5 25h-86q2 23 2 94.5t-2 91.5q244 -6 379 -6q59 0 149.5 1t157 3t70.5 2q-2 -20 -2 -92t2 -94h-86q-55 0 -78.5 -24.5t-27.5 -86.5q-5 -70 -6 -320q0 -42 1 -88 q1 -327 5 -421q4 -55 26.5 -78t83.5 -23h80v-190q-240 4 -375 4zM344 1544q141 193 262 268q39 21 70 22q11 0 20 -3q37 -10 57 -37q12 -16 11 -36q0 -14 -5 -31q-13 -40 -61 -68q-141 -90 -338 -139z" />
<glyph unicode="&#xce;" horiz-adv-x="876" d="M61 -4q2 21 2 94.5t-2 95.5h82q63 0 85 22.5t26 78.5q4 88 4 420.5t-4 408.5q-4 61 -27.5 86t-79.5 25h-86q2 23 2 94.5t-2 91.5q244 -6 379 -6q59 0 149.5 1t157 3t70.5 2q-2 -20 -2 -92t2 -94h-86q-55 0 -78.5 -24.5t-27.5 -86.5q-5 -70 -6 -320q0 -42 1 -88 q1 -327 5 -421q4 -55 26.5 -78t83.5 -23h80v-190q-240 4 -375 4zM135 1526q61 147 236 299h137q61 -49 127.5 -132t105.5 -167l-18 -23q-61 20 -147.5 68.5t-141.5 95.5q-53 -45 -138 -94t-142 -68z" />
<glyph unicode="&#xcf;" horiz-adv-x="876" d="M61 -4q2 21 2 94.5t-2 95.5h82q63 0 85 22.5t26 78.5q4 88 4 420.5t-4 408.5q-4 61 -27.5 86t-79.5 25h-86q2 23 2 94.5t-2 91.5q244 -6 379 -6q59 0 149.5 1t157 3t70.5 2q-2 -20 -2 -92t2 -94h-86q-55 0 -78.5 -24.5t-27.5 -86.5q-5 -70 -6 -320q0 -42 1 -88 q1 -327 5 -421q4 -55 26.5 -78t83.5 -23h80v-190q-240 4 -375 4zM141 1663q0 53 34 86t85 33q53 0 87 -33t34 -86q0 -55 -33 -87t-88 -32q-51 0 -85 33t-34 86zM494 1663q0 53 33.5 86t84.5 33q53 0 87 -33t34 -86q0 -55 -33.5 -87t-87.5 -32q-51 0 -84.5 33t-33.5 86z" />
<glyph unicode="&#xd0;" horiz-adv-x="1619" d="M57 1227v186q4 0 162 -2t236 -2q74 0 226.5 1t160.5 1q365 0 530.5 -167t169.5 -527v-15q0 -185 -48 -321q-50 -141 -146.5 -224t-219 -121t-278.5 -38q-268 2 -399 2l-394 -4v190h72q72 0 97.5 22.5t27.5 88.5q4 106 4 336q-33 0 -82 -1t-59 -1q2 12 3 87v43q0 36 -1 46 q57 -4 139 -4q0 217 -4 307q-4 63 -30.5 90t-82.5 27h-84zM618 803q129 0 211 4q-2 -18 -2 -88t2 -88q-16 0 -87.5 1t-123.5 1q4 -330 7 -357q4 -90 88 -90h67q201 0 287 112t86 421q0 289 -84 399.5t-287 110.5h-69q-84 0 -88 -80q-7 -92 -7 -346z" />
<glyph unicode="&#xd1;" horiz-adv-x="1699" d="M57 -4v190h82q68 0 97.5 29t33.5 90q4 100 5 409q0 44 1 83q0 237 -6 309q-10 121 -123 121h-88v186q144 -4 290.5 -4t293.5 4q233 -371 588 -876q2 154 1 274q0 180 -3 285q-2 72 -33 101.5t-88 29.5h-107q2 23 2.5 94.5t-2.5 91.5q4 0 61.5 -2t133.5 -3t127 -1l322 6 q-2 -20 -2.5 -92t2.5 -94h-91q-57 0 -86.5 -30t-33.5 -101q-4 -88 -4 -484.5t4 -611.5q-76 4 -151.5 4t-149.5 -4l-662 995q-1 -165 -1 -297q0 -264 5 -393q4 -61 33 -90t96 -29h103q-2 -49 -2 -96.5t2 -93.5q-207 4 -324 4zM526 1538q-21 62 -20 111q0 64 34 107 q60 77 175 77q119 0 200 -121q55 -82 103 -82q43 0 58 39q7 17 7 43q0 34 -12 84l51 14q22 -61 22 -110q0 -62 -34 -105q-61 -78 -174 -77q-127 0 -203 120q-33 47 -52.5 64.5t-49.5 17.5q-41 0 -58 -38q-7 -16 -6 -41q0 -35 13 -87z" />
<glyph unicode="&#xd2;" horiz-adv-x="1601" d="M80 707q0 367 193.5 555t527.5 188q360 0 540.5 -183.5t180.5 -557.5q0 -371 -198 -558.5t-523 -187.5q-721 1 -721 744zM498 707q0 -309 64.5 -432t238.5 -123q170 0 237.5 129t67.5 428q0 307 -66.5 430t-238.5 123q-162 0 -232.5 -130t-70.5 -425zM511 1758 q0 52 46 69q15 5 33 5q37 0 84 -24q117 -72 258 -264l-17 -24q-197 51 -340 143q-64 39 -64 95z" />
<glyph unicode="&#xd3;" horiz-adv-x="1601" d="M80 707q0 367 193.5 555t527.5 188q360 0 540.5 -183.5t180.5 -557.5q0 -371 -198 -558.5t-523 -187.5q-721 1 -721 744zM498 707q0 -309 64.5 -432t238.5 -123q170 0 237.5 129t67.5 428q0 307 -66.5 430t-238.5 123q-162 0 -232.5 -130t-70.5 -425zM707 1544 q141 193 262 268q39 21 69 22q11 0 21 -3q37 -10 56 -37q12 -16 12 -36q0 -14 -6 -31q-13 -40 -60 -68q-141 -90 -338 -139z" />
<glyph unicode="&#xd4;" horiz-adv-x="1601" d="M80 707q0 367 193.5 555t527.5 188q360 0 540.5 -183.5t180.5 -557.5q0 -371 -198 -558.5t-523 -187.5q-721 1 -721 744zM498 1526q61 147 235 299h137q61 -49 128 -132t106 -167l-19 -23q-61 20 -147 68.5t-141 95.5q-53 -45 -138.5 -94t-142.5 -68zM498 707 q0 -309 64.5 -432t238.5 -123q170 0 237.5 129t67.5 428q0 307 -66.5 430t-238.5 123q-162 0 -232.5 -130t-70.5 -425z" />
<glyph unicode="&#xd5;" horiz-adv-x="1601" d="M80 707q0 367 193.5 555t527.5 188q360 0 540.5 -183.5t180.5 -557.5q0 -371 -198 -558.5t-523 -187.5q-721 1 -721 744zM498 707q0 -309 64.5 -432t238.5 -123q170 0 237.5 129t67.5 428q0 307 -66.5 430t-238.5 123q-162 0 -232.5 -130t-70.5 -425zM500 1538 q-21 62 -21 111q0 64 34 107q60 77 175 77q119 0 201 -121q55 -82 102 -82q43 0 59 39q7 17 6 43q0 34 -12 84l52 14q22 -61 22 -110q0 -62 -35 -105q-61 -78 -174 -77q-127 0 -202 120q-33 47 -52.5 64.5t-50.5 17.5q-41 0 -57 -38q-7 -16 -7 -41q0 -35 13 -87z" />
<glyph unicode="&#xd6;" horiz-adv-x="1601" d="M80 707q0 367 193.5 555t527.5 188q360 0 540.5 -183.5t180.5 -557.5q0 -371 -198 -558.5t-523 -187.5q-721 1 -721 744zM498 707q0 -309 64.5 -432t238.5 -123q170 0 237.5 129t67.5 428q0 307 -66.5 430t-238.5 123q-162 0 -232.5 -130t-70.5 -425zM516 1663 q0 53 34 86t85 33q53 0 87 -33t34 -86q0 -55 -33 -87t-88 -32q-51 0 -85 33t-34 86zM868 1663q0 53 34 86t85 33q53 0 87 -33t34 -86q0 -55 -34 -87t-87 -32q-51 0 -85 33t-34 86z" />
<glyph unicode="&#xd7;" d="M229 250q152 152 299 262q-147 111 -299 262l121 119q158 -158 262 -297q104 139 265 299l118 -119q-162 -162 -301 -266q61 -47 303 -264l-118 -119q-168 168 -267 301q-92 -123 -262 -299z" />
<glyph unicode="&#xd8;" horiz-adv-x="1601" d="M80 707q0 367 193.5 555t527.5 188q287 0 456 -115l170 172l46 -34l-136 -201q184 -182 185 -563q0 -371 -198 -558.5t-523 -187.5q-279 0 -451 111l-160 -160l-49 39l129 184q-190 187 -190 570zM498 707q0 -186 18 -285l277 319l268 346q-63 174 -260 175 q-162 0 -232.5 -130t-70.5 -425zM543 317q61 -166 258 -165q170 0 237.5 129t67.5 428q0 162 -19 272l-256 -291z" />
<glyph unicode="&#xd9;" horiz-adv-x="1689" d="M57 1227v186q242 -6 377 -6q80 0 230.5 3t154.5 3v-186h-78q-61 0 -92 -30t-33 -99q-2 -106 -2 -299t2 -246q2 -203 74 -289t223.5 -86t223 84t73.5 291q3 198 3 334t-3 211q-2 129 -118 129h-76v186q193 -6 305 -6q66 0 185.5 3t125.5 3v-186h-63q-111 0 -113 -129v-545 q0 -600 -592 -600q-328 0 -481.5 142.5t-153.5 453.5q0 16 1 139t2 215q0 31 1 63q0 64 -2 132q-4 70 -29.5 99.5t-82.5 29.5h-62zM562 1758q0 52 46 69q15 5 33 5q37 0 84 -24q117 -72 258 -264l-16 -24q-197 51 -340 143q-65 39 -65 95z" />
<glyph unicode="&#xda;" horiz-adv-x="1689" d="M57 1227v186q242 -6 377 -6q80 0 230.5 3t154.5 3v-186h-78q-61 0 -92 -30t-33 -99q-2 -106 -2 -299t2 -246q2 -203 74 -289t223.5 -86t223 84t73.5 291q3 198 3 334t-3 211q-2 129 -118 129h-76v186q193 -6 305 -6q66 0 185.5 3t125.5 3v-186h-63q-111 0 -113 -129v-545 q0 -600 -592 -600q-328 0 -481.5 142.5t-153.5 453.5q0 16 1 139t2 215q0 31 1 63q0 64 -2 132q-4 70 -29.5 99.5t-82.5 29.5h-62zM852 1544q141 193 262 268q39 21 70 22q11 0 20 -3q37 -10 57 -37q12 -16 11 -36q0 -14 -5 -31q-13 -40 -61 -68q-141 -90 -338 -139z" />
<glyph unicode="&#xdb;" horiz-adv-x="1689" d="M57 1227v186q242 -6 377 -6q80 0 230.5 3t154.5 3v-186h-78q-61 0 -92 -30t-33 -99q-2 -106 -2 -299t2 -246q2 -203 74 -289t223.5 -86t223 84t73.5 291q3 198 3 334t-3 211q-2 129 -118 129h-76v186q193 -6 305 -6q66 0 185.5 3t125.5 3v-186h-63q-111 0 -113 -129v-545 q0 -600 -592 -600q-328 0 -481.5 142.5t-153.5 453.5q0 16 1 139t2 215q0 31 1 63q0 64 -2 132q-4 70 -29.5 99.5t-82.5 29.5h-62zM612 1526q61 147 236 299h137q61 -49 128 -132t106 -167l-19 -23q-61 20 -147 68.5t-142 95.5q-53 -45 -138 -94t-142 -68z" />
<glyph unicode="&#xdc;" horiz-adv-x="1689" d="M57 1227v186q242 -6 377 -6q80 0 230.5 3t154.5 3v-186h-78q-61 0 -92 -30t-33 -99q-2 -106 -2 -299t2 -246q2 -203 74 -289t223.5 -86t223 84t73.5 291q3 198 3 334t-3 211q-2 129 -118 129h-76v186q193 -6 305 -6q66 0 185.5 3t125.5 3v-186h-63q-111 0 -113 -129v-545 q0 -600 -592 -600q-328 0 -481.5 142.5t-153.5 453.5q0 16 1 139t2 215q0 31 1 63q0 64 -2 132q-4 70 -29.5 99.5t-82.5 29.5h-62zM618 1663q0 53 34 86t85 33q53 0 87 -33t34 -86q0 -55 -32.5 -87t-88.5 -32q-51 0 -85 33t-34 86zM971 1663q0 53 33.5 86t85.5 33 q53 0 86.5 -33t33.5 -86q0 -55 -33.5 -87t-86.5 -32q-51 0 -85 33t-34 86z" />
<glyph unicode="&#xdd;" horiz-adv-x="1716" d="M37 1227v186q279 -6 436 -6l434 6q-2 -47 -2 -93.5t2 -92.5h-69q-99 0 -100 -76q0 -38 26 -96q78 -182 205 -385q115 217 188 385q28 61 28 100q0 72 -91 72h-56v186q207 -6 324 -6l319 6q-2 -45 -2 -91.5t2 -94.5h-43q-125 0 -181 -34t-105 -118q-59 -102 -310 -588 v-188q0 -63 24 -88t97 -25h101q-2 -47 -2 -94.5t2 -95.5q-272 4 -426 4l-428 -4q2 20 2 94t-2 96h104q74 0 93.5 25t19.5 88v186q-219 438 -320 613q-39 68 -93 98.5t-144 30.5h-33zM924 1544q141 193 262 268q39 21 69 22q11 0 21 -3q37 -10 56 -37q12 -16 12 -36 q0 -14 -6 -31q-13 -40 -60 -68q-141 -90 -338 -139z" />
<glyph unicode="&#xde;" horiz-adv-x="1439" d="M53 -4q2 21 2 94.5t-2 95.5h82q63 0 85 22.5t26 78.5q4 88 4 420.5t-4 408.5q-4 61 -27.5 86t-79.5 25h-86q2 23 2 94.5t-2 91.5q244 -6 379 -6q59 0 149.5 1t157 3t70.5 2q-2 -20 -2 -92t2 -94h-86q-55 0 -78.5 -25.5t-28.5 -89.5q96 14 187 14q303 0 436 -106.5 t133 -312.5q0 -203 -146.5 -304.5t-482.5 -101.5q-55 0 -129 4q2 -68 27 -93.5t86 -25.5h80v-190q-240 4 -375 4zM610 956q-1 -57 0 -131q0 -149 2 -368h68q152 0 214 58q60 57 60 183q0 141 -59 200.5t-217 59.5q-45 0 -68 -2z" />
<glyph unicode="&#xdf;" horiz-adv-x="1339" d="M33 0q2 18 2 77.5t-2 78.5h49q78 0 82 108q6 107 6 263q0 125 -4 280l-115 -4v155l113 -4v15q0 231 126 342q130 115 357 114q221 0 339 -101t118 -275q0 -256 -215 -322q346 -31 346 -373q0 -385 -375 -385q-278 0 -278 239q0 60 18 136l84 -4q-10 -57 -10 -101 q0 -139 100 -139q59 0 85 61.5t26 209.5q0 162 -59 226q-52 57 -167 57q-15 0 -30 -1v115q82 0 122 65.5t40 215.5q0 139 -39 192t-113 53t-114 -61.5t-40 -216.5v-752q0 -203 -4 -264q-154 6 -198 6q-43 0 -102.5 -1t-102.5 -3t-45 -2z" />
<glyph unicode="&#xe0;" horiz-adv-x="1130" d="M43 211q0 299 555 328v79q0 127 -43 185q-42 55 -159 55h-9q-39 0 -72 -6q92 -29 93 -127q0 -68 -43 -105.5t-121 -37.5q-74 0 -116 38.5t-42 112.5q0 119 123 186.5t297 67.5q231 0 324.5 -100.5t93.5 -304.5v-310q0 -76 9 -101.5t32 -25.5q49 0 48 142q0 38 -3 86l82 4 q2 -38 2 -73q0 -147 -42 -231q-52 -103 -202 -104q-195 0 -238 156q-96 -156 -295 -156q-129 0 -201.5 62.5t-72.5 179.5zM259 1306q0 52 46 68q15 5 33 5q37 0 84 -23q117 -72 258 -264l-16 -25q-197 51 -340 143q-65 40 -65 96zM381 276q0 -129 98 -129q88 0 119 78v244 q-217 -21 -217 -193z" />
<glyph unicode="&#xe1;" horiz-adv-x="1130" d="M43 211q0 299 555 328v79q0 127 -43 185q-42 55 -159 55h-9q-39 0 -72 -6q92 -29 93 -127q0 -68 -43 -105.5t-121 -37.5q-74 0 -116 38.5t-42 112.5q0 119 123 186.5t297 67.5q231 0 324.5 -100.5t93.5 -304.5v-310q0 -76 9 -101.5t32 -25.5q49 0 48 142q0 38 -3 86l82 4 q2 -38 2 -73q0 -147 -42 -231q-52 -103 -202 -104q-195 0 -238 156q-96 -156 -295 -156q-129 0 -201.5 62.5t-72.5 179.5zM381 276q0 -129 98 -129q88 0 119 78v244q-217 -21 -217 -193zM451 1092q141 193 262 268q39 21 69 21q11 0 21 -3q37 -10 56 -37q12 -16 12 -36 q0 -14 -6 -30q-13 -40 -60 -69q-141 -90 -338 -139z" />
<glyph unicode="&#xe2;" horiz-adv-x="1130" d="M43 211q0 299 555 328v79q0 127 -43 185q-42 55 -159 55h-9q-39 0 -72 -6q92 -29 93 -127q0 -68 -43 -105.5t-121 -37.5q-74 0 -116 38.5t-42 112.5q0 119 123 186.5t297 67.5q231 0 324.5 -100.5t93.5 -304.5v-310q0 -76 9 -101.5t32 -25.5q49 0 48 142q0 38 -3 86l82 4 q2 -38 2 -73q0 -147 -42 -231q-52 -103 -202 -104q-195 0 -238 156q-96 -156 -295 -156q-129 0 -201.5 62.5t-72.5 179.5zM231 1083q61 147 236 299h137q61 -49 128 -132t106 -167l-19 -22q-61 20 -147 68.5t-142 95.5q-53 -45 -138 -94.5t-142 -67.5zM381 276 q0 -129 98 -129q88 0 119 78v244q-217 -21 -217 -193z" />
<glyph unicode="&#xe3;" horiz-adv-x="1130" d="M43 211q0 299 555 328v79q0 127 -43 185q-42 55 -159 55h-9q-39 0 -72 -6q92 -29 93 -127q0 -68 -43 -105.5t-121 -37.5q-74 0 -116 38.5t-42 112.5q0 119 123 186.5t297 67.5q231 0 324.5 -100.5t93.5 -304.5v-310q0 -76 9 -101.5t32 -25.5q49 0 48 142q0 38 -3 86l82 4 q2 -38 2 -73q0 -147 -42 -231q-52 -103 -202 -104q-195 0 -238 156q-96 -156 -295 -156q-129 0 -201.5 62.5t-72.5 179.5zM217 1085q-21 62 -21 112q0 64 34 107q60 77 176 76q119 0 200 -120q55 -82 103 -82q43 0 58 37q7 16 7 43q0 34 -12 85l51 15q22 -61 22 -110 q0 -62 -34 -105q-61 -78 -174 -78q-127 0 -203 121q-33 47 -52.5 64.5t-49.5 17.5q-41 0 -58 -38q-7 -16 -7 -41q0 -35 13 -87zM381 276q0 -129 98 -129q88 0 119 78v244q-217 -21 -217 -193z" />
<glyph unicode="&#xe4;" horiz-adv-x="1130" d="M43 211q0 299 555 328v79q0 127 -43 185q-42 55 -159 55h-9q-39 0 -72 -6q92 -29 93 -127q0 -68 -43 -105.5t-121 -37.5q-74 0 -116 38.5t-42 112.5q0 119 123 186.5t297 67.5q231 0 324.5 -100.5t93.5 -304.5v-310q0 -76 9 -101.5t32 -25.5q49 0 48 142q0 38 -3 86l82 4 q2 -38 2 -73q0 -147 -42 -231q-52 -103 -202 -104q-195 0 -238 156q-96 -156 -295 -156q-129 0 -201.5 62.5t-72.5 179.5zM242 1210.5q0 53.5 33.5 86t84.5 32.5q53 0 87 -32.5t34 -86.5q0 -55 -32.5 -86.5t-88.5 -31.5q-51 0 -84.5 32.5t-33.5 86zM381 276q0 -129 98 -129 q88 0 119 78v244q-217 -21 -217 -193zM594 1210.5q0 53.5 34 86t85 32.5q53 0 87 -32.5t34 -86.5q0 -55 -34 -86.5t-87 -31.5q-51 0 -85 32.5t-34 86z" />
<glyph unicode="&#xe5;" horiz-adv-x="1130" d="M43 211q0 299 555 328v79q0 127 -43 185q-42 55 -159 55h-9q-39 0 -72 -6q92 -29 93 -127q0 -68 -43 -105.5t-121 -37.5q-74 0 -116 38.5t-42 112.5q0 119 123 186.5t297 67.5q231 0 324.5 -100.5t93.5 -304.5v-310q0 -76 9 -101.5t32 -25.5q49 0 48 142q0 38 -3 86l82 4 q2 -38 2 -73q0 -147 -42 -231q-52 -103 -202 -104q-195 0 -238 156q-96 -156 -295 -156q-129 0 -201.5 62.5t-72.5 179.5zM338 1264q0 84 49 132t133 48t134.5 -49t50.5 -131q0 -84 -49.5 -134.5t-133.5 -50.5t-134 50.5t-50 134.5zM381 276q0 -129 98 -129q88 0 119 78v244 q-217 -21 -217 -193zM426 1264q0 -104 96 -105q43 0 68.5 27.5t25.5 77.5q0 47 -25.5 72.5t-68.5 25.5q-96 0 -96 -98z" />
<glyph unicode="&#xe6;" horiz-adv-x="1587" d="M43 221q0 287 553 318v92q0 227 -170 227q-51 0 -107 -10q86 -29 86 -123q0 -68 -43 -105.5t-116.5 -37.5t-115.5 40t-42 111q0 121 122 187.5t296 66.5q195 0 295 -84q113 84 284 84q240 0 350 -152q95 -133 95 -343q0 -31 -2 -64h-588q4 -160 43 -223.5t131 -63.5 q86 0 128 44t56 137q12 0 62.5 -4.5t96.5 -7.5t65 -3q-18 -160 -128 -251t-313 -91q-311 0 -424 191q-86 -186 -319 -187q-295 0 -295 252zM381 276q0 -125 96 -124q109 0 131 129q-12 61 -12 133v55q-106 -12 -160.5 -56.5t-54.5 -136.5zM940 512h207q27 0 36 10t9 45 q0 256 -119 256q-68 0 -99.5 -67.5t-33.5 -243.5z" />
<glyph unicode="&#xe7;" horiz-adv-x="1021" d="M55 461q0 248 133.5 387t372.5 139q178 0 284.5 -71.5t106.5 -196.5q0 -78 -46 -122t-130 -44q-80 0 -124 39t-44 106q0 94 78 131q-47 20 -100 21q-98 0 -144.5 -81t-46.5 -275q0 -197 38 -275t130 -78q90 0 130 45t55 136q12 0 63 -4.5t98 -7.5t66 -3 q-14 -156 -116.5 -243t-274.5 -97q-6 -63 -56 -112q15 1 30 1q74 0 130 -35q68 -42 68 -128q0 -90 -65.5 -142.5t-180.5 -52.5q-158 0 -227 121l47 41q59 -72 135 -72q113 0 113 107q0 59 -52 82q-23 10 -50 10q-32 0 -70 -14l-25 47q111 51 135 145q-225 6 -343 131 t-118 365z" />
<glyph unicode="&#xe8;" horiz-adv-x="1048" d="M55 461q0 252 132 389t358 137q244 0 352 -149q93 -128 93 -337q0 -35 -3 -73h-600q6 -158 49 -224.5t137 -66.5q86 0 128 45t57 135q10 0 62 -4t97.5 -6t63.5 -2q-18 -162 -128 -253t-312 -91q-231 0 -358.5 126t-127.5 374zM257 1306q0 52 46 68q15 5 33 5q37 0 84 -23 q117 -72 258 -264l-16 -25q-197 51 -340 143q-65 40 -65 96zM387 512h215q31 0 43 12.5t12 53.5q0 129 -30.5 187t-94.5 58q-70 0 -106.5 -68.5t-38.5 -242.5z" />
<glyph unicode="&#xe9;" horiz-adv-x="1048" d="M55 461q0 252 132 389t358 137q244 0 352 -149q93 -128 93 -337q0 -35 -3 -73h-600q6 -158 49 -224.5t137 -66.5q86 0 128 45t57 135q10 0 62 -4t97.5 -6t63.5 -2q-18 -162 -128 -253t-312 -91q-231 0 -358.5 126t-127.5 374zM387 512h215q31 0 43 12.5t12 53.5 q0 129 -30.5 187t-94.5 58q-70 0 -106.5 -68.5t-38.5 -242.5zM455 1092q141 193 262 268q39 21 69 21q11 0 21 -3q37 -10 56 -37q12 -16 12 -36q0 -14 -6 -30q-13 -40 -60 -69q-141 -90 -338 -139z" />
<glyph unicode="&#xea;" horiz-adv-x="1048" d="M55 461q0 252 132 389t358 137q244 0 352 -149q93 -128 93 -337q0 -35 -3 -73h-600q6 -158 49 -224.5t137 -66.5q86 0 128 45t57 135q10 0 62 -4t97.5 -6t63.5 -2q-18 -162 -128 -253t-312 -91q-231 0 -358.5 126t-127.5 374zM250 1083q61 147 235 299h138 q61 -49 127.5 -132t105.5 -167l-18 -22q-61 20 -147.5 68.5t-141.5 95.5q-53 -45 -138 -94.5t-143 -67.5zM387 512h215q31 0 43 12.5t12 53.5q0 129 -30.5 187t-94.5 58q-70 0 -106.5 -68.5t-38.5 -242.5z" />
<glyph unicode="&#xeb;" horiz-adv-x="1048" d="M55 461q0 252 132 389t358 137q244 0 352 -149q93 -128 93 -337q0 -35 -3 -73h-600q6 -158 49 -224.5t137 -66.5q86 0 128 45t57 135q10 0 62 -4t97.5 -6t63.5 -2q-18 -162 -128 -253t-312 -91q-231 0 -358.5 126t-127.5 374zM242 1210.5q0 53.5 33.5 86t84.5 32.5 q53 0 87 -32.5t34 -86.5q0 -55 -32.5 -86.5t-88.5 -31.5q-51 0 -84.5 32.5t-33.5 86zM387 512h215q31 0 43 12.5t12 53.5q0 129 -30.5 187t-94.5 58q-70 0 -106.5 -68.5t-38.5 -242.5zM594 1210.5q0 53.5 34 86t85 32.5q53 0 87 -32.5t34 -86.5q0 -55 -34 -86.5t-87 -31.5 q-51 0 -85 32.5t-34 86z" />
<glyph unicode="&#xec;" horiz-adv-x="657" d="M9 1306q0 52 46 68q15 5 33 5q37 0 84 -23q117 -72 258 -264l-16 -25q-197 51 -340 143q-65 40 -65 96zM31 803q2 39 2 78t-2 77q313 0 461 7q-2 -62 -2.5 -342.5t2.5 -356.5q2 -66 25.5 -88t80.5 -22h29v-160q-12 0 -133 3t-162 3q-43 0 -170 -3t-131 -3q2 18 2 74.5 t-2 85.5h30q59 0 79 21.5t24 87t4 220t-4 213.5q-4 61 -23.5 83t-81.5 22h-28z" />
<glyph unicode="&#xed;" horiz-adv-x="657" d="M31 803q2 39 2 78t-2 77q313 0 461 7q-2 -62 -2.5 -342.5t2.5 -356.5q2 -66 25.5 -88t80.5 -22h29v-160q-12 0 -133 3t-162 3q-43 0 -170 -3t-131 -3q2 18 2 74.5t-2 85.5h30q59 0 79 21.5t24 87t4 220t-4 213.5q-4 61 -23.5 83t-81.5 22h-28zM223 1092q141 193 262 268 q39 21 70 21q11 0 20 -3q37 -10 57 -37q12 -16 11 -36q0 -14 -5 -30q-13 -40 -60 -69q-141 -90 -338 -139z" />
<glyph unicode="&#xee;" horiz-adv-x="657" d="M-6 1083q61 147 235 299h138q61 -49 127.5 -132t105.5 -167l-18 -22q-61 20 -147.5 68.5t-141.5 95.5q-53 -45 -138 -94.5t-143 -67.5zM31 803q2 39 2 78t-2 77q313 0 461 7q-2 -62 -2.5 -342.5t2.5 -356.5q2 -66 25.5 -88t80.5 -22h29v-160q-12 0 -133 3t-162 3 q-43 0 -170 -3t-131 -3q2 18 2 74.5t-2 85.5h30q59 0 79 21.5t24 87t4 220t-4 213.5q-4 61 -23.5 83t-81.5 22h-28z" />
<glyph unicode="&#xef;" horiz-adv-x="657" d="M0 1210.5q0 53.5 34 86t85 32.5q53 0 87 -32.5t34 -86.5q0 -55 -33 -86.5t-88 -31.5q-51 0 -85 32.5t-34 86zM31 803q2 39 2 78t-2 77q313 0 461 7q-2 -62 -2.5 -342.5t2.5 -356.5q2 -66 25.5 -88t80.5 -22h29v-160q-12 0 -133 3t-162 3q-43 0 -170 -3t-131 -3 q2 18 2 74.5t-2 85.5h30q59 0 79 21.5t24 87t4 220t-4 213.5q-4 61 -23.5 83t-81.5 22h-28zM352 1210.5q0 53.5 34 86t85 32.5q53 0 87 -32.5t34 -86.5q0 -55 -34 -86.5t-87 -31.5q-51 0 -85 32.5t-34 86z" />
<glyph unicode="&#xf0;" horiz-adv-x="1095" d="M55 467q0 258 129 389t344 131q59 0 129 -16q-33 139 -108 221l-141 -121l-48 66l140 96q-80 57 -213 76l28 104q184 -8 320 -80q66 57 145 119l47 -66q-33 -25 -133 -88q172 -111 259 -311.5t87 -439.5q0 -299 -133 -442.5t-366 -143.5q-231 0 -358.5 126t-127.5 380z M391 467q0 -205 40 -273.5t122 -68.5q76 0 114 70.5t38 271.5q0 209 -38 284.5t-116 75.5q-80 0 -120 -75.5t-40 -284.5z" />
<glyph unicode="&#xf1;" horiz-adv-x="1292" d="M31 -6q2 18 2 80.5t-2 81.5h30q59 0 79 24.5t24 95.5q4 74 4 215.5t-4 196.5q-4 61 -23.5 88t-81.5 27h-24v155q377 0 457 7v-207q70 229 315 229q320 0 320 -363q0 -7 -1 -14v-334q4 -70 26 -95t81 -25h22q-2 -29 -2 -86.5t2 -75.5q-6 0 -56 1t-118.5 3t-113.5 2 q-47 0 -116 -2t-120 -3t-53 -1q2 18 2 75.5t-2 86.5h27q49 0 69.5 27.5t24.5 92.5q3 74 3 154.5t-3 167.5q-4 106 -35 158.5t-105 52.5q-168 0 -167 -287v-246q0 -68 22.5 -94t73.5 -26h28q-2 -29 -2 -86.5t2 -75.5q-6 0 -57 1t-119.5 3t-113.5 2q-47 0 -117 -2t-123 -3 t-55 -1zM332 1085q-21 62 -21 112q0 64 34 107q60 77 175 76q119 0 201 -120q55 -82 102 -82q43 0 59 37q7 16 6 43q0 34 -11 85l51 15q22 -61 22 -110q0 -62 -35 -105q-61 -78 -174 -78q-127 0 -202 121q-33 47 -52.5 64.5t-50.5 17.5q-41 0 -57 -38q-7 -16 -7 -41 q0 -35 13 -87z" />
<glyph unicode="&#xf2;" horiz-adv-x="1112" d="M61 467q0 260 131.5 390t364.5 130q236 0 365 -129t129 -391q0 -254 -130 -380t-364 -126q-236 0 -366 127t-130 379zM267 1306q0 52 46 68q15 5 33 5q37 0 84 -23q117 -72 258 -264l-16 -25q-197 51 -340 143q-65 40 -65 96zM403 467q0 -207 37 -274.5t117 -67.5 q78 0 116 68.5t38 273.5q0 209 -38 284.5t-118 75.5q-78 0 -115 -74.5t-37 -285.5z" />
<glyph unicode="&#xf3;" horiz-adv-x="1112" d="M61 467q0 260 131.5 390t364.5 130q236 0 365 -129t129 -391q0 -254 -130 -380t-364 -126q-236 0 -366 127t-130 379zM403 467q0 -207 37 -274.5t117 -67.5q78 0 116 68.5t38 273.5q0 209 -38 284.5t-118 75.5q-78 0 -115 -74.5t-37 -285.5zM461 1092q141 193 262 268 q39 21 70 21q11 0 20 -3q37 -10 56 -37q12 -16 12 -36q0 -14 -5 -30q-13 -40 -61 -69q-141 -90 -338 -139z" />
<glyph unicode="&#xf4;" horiz-adv-x="1112" d="M61 467q0 260 131.5 390t364.5 130q236 0 365 -129t129 -391q0 -254 -130 -380t-364 -126q-236 0 -366 127t-130 379zM262 1083q61 147 236 299h137q61 -49 127.5 -132t105.5 -167l-18 -22q-61 20 -147.5 68.5t-141.5 95.5q-53 -45 -138 -94.5t-142 -67.5zM403 467 q0 -207 37 -274.5t117 -67.5q78 0 116 68.5t38 273.5q0 209 -38 284.5t-118 75.5q-78 0 -115 -74.5t-37 -285.5z" />
<glyph unicode="&#xf5;" horiz-adv-x="1112" d="M61 467q0 260 131.5 390t364.5 130q236 0 365 -129t129 -391q0 -254 -130 -380t-364 -126q-236 0 -366 127t-130 379zM246 1085q-21 62 -21 112q0 64 34 107q60 77 175 76q119 0 201 -120q55 -82 102 -82q43 0 59 37q7 16 6 43q0 34 -11 85l51 15q22 -61 22 -110 q0 -62 -35 -105q-61 -78 -174 -78q-127 0 -202 121q-33 47 -52.5 64.5t-50.5 17.5q-41 0 -57 -38q-7 -16 -7 -41q0 -35 13 -87zM403 467q0 -207 37 -274.5t117 -67.5q78 0 116 68.5t38 273.5q0 209 -38 284.5t-118 75.5q-78 0 -115 -74.5t-37 -285.5z" />
<glyph unicode="&#xf6;" horiz-adv-x="1112" d="M61 467q0 260 131.5 390t364.5 130q236 0 365 -129t129 -391q0 -254 -130 -380t-364 -126q-236 0 -366 127t-130 379zM270 1210.5q0 53.5 34 86t85 32.5q53 0 87 -32.5t34 -86.5q0 -55 -33 -86.5t-88 -31.5q-51 0 -85 32.5t-34 86zM403 467q0 -207 37 -274.5t117 -67.5 q78 0 116 68.5t38 273.5q0 209 -38 284.5t-118 75.5q-78 0 -115 -74.5t-37 -285.5zM623 1210.5q0 53.5 33.5 86t84.5 32.5q53 0 87 -32.5t34 -86.5q0 -55 -33.5 -86.5t-87.5 -31.5q-51 0 -84.5 32.5t-33.5 86z" />
<glyph unicode="&#xf7;" d="M180 428v170q281 0 434 -37q156 37 435 37v-170q-309 6 -435 37q-129 -31 -434 -37zM479 797q0 55 39 92t96 37q61 0 97.5 -38t36.5 -93q0 -57 -35 -90t-99 -33q-61 0 -98 32t-37 93zM479 227q0 55 39 92t96 37q63 0 98.5 -36.5t35.5 -94t-35 -90.5t-99 -33q-61 0 -98 32 t-37 93z" />
<glyph unicode="&#xf8;" horiz-adv-x="1112" d="M61 467q0 260 131.5 390t364.5 130q184 0 303 -80l121 131l33 -26l-96 -150q133 -133 133 -395q0 -254 -130 -380t-364 -126q-182 0 -299 74l-119 -123l-35 29l95 139q-138 131 -138 387zM403 467q0 -100 5 -139l139 164l145 196q-16 78 -51 108.5t-86 30.5 q-78 0 -115 -74.5t-37 -285.5zM420 250q16 -74 49 -99.5t88 -25.5q78 0 116 68.5t38 273.5q0 82 -6 139l-130 -147z" />
<glyph unicode="&#xf9;" horiz-adv-x="1263" d="M29 803v158q180 -2 223 -3q164 0 231 7q-6 -115 -6 -318v-274q0 -129 41 -180.5t98 -51.5q92 0 130 91.5t38 295.5v158q0 66 -28.5 91.5t-104.5 25.5h-20q2 18 2 79.5t-2 78.5q209 -2 256 -3q195 0 231 7q-6 -111 -6 -312v-368q2 -66 22.5 -97.5t69.5 -31.5h29v-156 q-369 0 -449 -6v196q-72 -229 -311 -229q-152 0 -240 93q-84 89 -84 273q0 9 1 17q2 47 2 168t-2 158q-2 72 -21.5 102.5t-71.5 30.5h-28zM261 1306q0 52 46 68q15 5 33 5q37 0 84 -23q117 -72 258 -264l-16 -25q-197 51 -340 143q-65 40 -65 96z" />
<glyph unicode="&#xfa;" horiz-adv-x="1263" d="M29 803v158q180 -2 223 -3q164 0 231 7q-6 -115 -6 -318v-274q0 -129 41 -180.5t98 -51.5q92 0 130 91.5t38 295.5v158q0 66 -28.5 91.5t-104.5 25.5h-20q2 18 2 79.5t-2 78.5q209 -2 256 -3q195 0 231 7q-6 -111 -6 -312v-368q2 -66 22.5 -97.5t69.5 -31.5h29v-156 q-369 0 -449 -6v196q-72 -229 -311 -229q-152 0 -240 93q-84 89 -84 273q0 9 1 17q2 47 2 168t-2 158q-2 72 -21.5 102.5t-71.5 30.5h-28zM555 1092q141 193 262 268q39 21 70 21q11 0 20 -3q37 -10 57 -37q12 -16 11 -36q0 -14 -5 -30q-13 -40 -61 -69q-141 -90 -338 -139z " />
<glyph unicode="&#xfb;" horiz-adv-x="1263" d="M29 803v158q180 -2 223 -3q164 0 231 7q-6 -115 -6 -318v-274q0 -129 41 -180.5t98 -51.5q92 0 130 91.5t38 295.5v158q0 66 -28.5 91.5t-104.5 25.5h-20q2 18 2 79.5t-2 78.5q209 -2 256 -3q195 0 231 7q-6 -111 -6 -312v-368q2 -66 22.5 -97.5t69.5 -31.5h29v-156 q-369 0 -449 -6v196q-72 -229 -311 -229q-152 0 -240 93q-84 89 -84 273q0 9 1 17q2 47 2 168t-2 158q-2 72 -21.5 102.5t-71.5 30.5h-28zM287 1083q61 147 235 299h137q61 -49 128 -132t106 -167l-19 -22q-61 20 -147 68.5t-141 95.5q-53 -45 -138.5 -94.5t-142.5 -67.5z " />
<glyph unicode="&#xfc;" horiz-adv-x="1263" d="M29 803v158q180 -2 223 -3q164 0 231 7q-6 -115 -6 -318v-274q0 -129 41 -180.5t98 -51.5q92 0 130 91.5t38 295.5v158q0 66 -28.5 91.5t-104.5 25.5h-20q2 18 2 79.5t-2 78.5q209 -2 256 -3q195 0 231 7q-6 -111 -6 -312v-368q2 -66 22.5 -97.5t69.5 -31.5h29v-156 q-369 0 -449 -6v196q-72 -229 -311 -229q-152 0 -240 93q-84 89 -84 273q0 9 1 17q2 47 2 168t-2 158q-2 72 -21.5 102.5t-71.5 30.5h-28zM293 1210.5q0 53.5 33.5 86t85.5 32.5q53 0 86.5 -32.5t33.5 -86.5q0 -55 -32.5 -86.5t-87.5 -31.5q-51 0 -85 32.5t-34 86z M645 1210.5q0 53.5 34 86t85 32.5q53 0 87 -32.5t34 -86.5q0 -55 -34 -86.5t-87 -31.5q-51 0 -85 32.5t-34 86z" />
<glyph unicode="&#xfd;" horiz-adv-x="1193" d="M18 803q2 18 2 79.5t-2 78.5q176 -6 308 -7l307 7q-2 -40 -2 -79.5t2 -78.5h-31q-74 0 -74 -65q0 -19 7 -44q57 -205 133 -415q119 346 137 415q7 25 7 45q0 64 -73 64h-34q2 18 2 79.5t-2 78.5q135 -6 237 -7l221 7v-158h-37q-68 0 -101.5 -26.5t-57.5 -84.5 q-115 -276 -240 -657q-78 -236 -179.5 -331t-258.5 -95q-117 0 -178.5 53t-61.5 141q0 80 48 127t122 47q154 0 154 -139q0 -66 -56 -107q-43 -32 -100 -33q-17 0 -35 3q41 -18 90 -18q121 0 189.5 83.5t134.5 294.5q-65 2 -114 2t-83 -2q-82 285 -219 631q-25 61 -51.5 86 t-81.5 25h-29zM641 1092q141 193 262 268q39 21 70 21q11 0 20 -3q37 -10 57 -37q12 -16 11 -36q0 -14 -5 -30q-13 -40 -61 -69q-141 -90 -338 -139z" />
<glyph unicode="&#xfe;" horiz-adv-x="1210" d="M31 -203h30q53 0 76 29t27 92q5 79 5 473v139q-1 520 -5 611q-4 63 -26.5 89.5t-80.5 26.5h-22v156q377 0 457 6v-676q70 244 307 244q178 0 262 -121t84 -397q0 -504 -357 -504q-229 0 -296 211v-258q0 -121 110 -121h31q-2 -18 -2 -78.5t2 -76.5q-8 0 -123 3t-178 3 q-47 0 -118 -2t-124 -3t-59 -1q2 16 2 76.5t-2 78.5zM492 477q0 -168 34.5 -250t126.5 -82q86 0 120 69t34 263q0 178 -26.5 255t-121.5 77q-84 0 -124.5 -71.5t-42.5 -227.5v-33z" />
<glyph unicode="&#xff;" horiz-adv-x="1193" d="M18 803q2 18 2 79.5t-2 78.5q176 -6 308 -7l307 7q-2 -40 -2 -79.5t2 -78.5h-31q-74 0 -74 -65q0 -19 7 -44q57 -205 133 -415q119 346 137 415q7 25 7 45q0 64 -73 64h-34q2 18 2 79.5t-2 78.5q135 -6 237 -7l221 7v-158h-37q-68 0 -101.5 -26.5t-57.5 -84.5 q-115 -276 -240 -657q-78 -236 -179.5 -331t-258.5 -95q-117 0 -178.5 53t-61.5 141q0 80 48 127t122 47q154 0 154 -139q0 -66 -56 -107q-43 -32 -100 -33q-17 0 -35 3q41 -18 90 -18q121 0 189.5 83.5t134.5 294.5q-65 2 -114 2t-83 -2q-82 285 -219 631q-25 61 -51.5 86 t-81.5 25h-29zM381 1210.5q0 53.5 34 86t85 32.5q53 0 87 -32.5t34 -86.5q0 -55 -33 -86.5t-88 -31.5q-51 0 -85 32.5t-34 86zM733 1210.5q0 53.5 34 86t85 32.5q53 0 87 -32.5t34 -86.5q0 -55 -34 -86.5t-87 -31.5q-51 0 -85 32.5t-34 86z" />
<glyph unicode="&#x152;" horiz-adv-x="2291" d="M80 707q0 373 193.5 560t527.5 187q170 0 303 -43q31 0 80 -1t57 -1q25 0 186.5 1t329.5 1q373 0 469 12q-13 -164 -13 -405q0 -60 1 -125q-23 2 -94.5 2t-94.5 -2v14q0 186 -63.5 251t-206.5 65h-221q-111 0 -117 -115q-4 -59 -4 -334h68q109 0 152.5 45t43.5 154v53 h152q-10 -297 -10 -313q0 -145 10 -320q-38 2 -75 2t-73 -2v47q-2 115 -45 163t-159 48h-64q0 -289 4 -342q4 -68 35 -95.5t88 -27.5h213q152 0 215.5 79t63.5 272v20q25 -2 101.5 -2t100.5 2q-20 -217 -20 -565q-96 8 -420 8q-510 2 -577 2q-4 0 -58.5 -1t-87.5 -1 q-127 -41 -291 -41q-356 0 -528 181.5t-172 566.5zM498 707q0 -315 64.5 -435t238.5 -120q209 0 235 129q13 65 14 382v47q-1 359 -14 431q-23 119 -235 119q-164 0 -233.5 -125t-69.5 -428z" />
<glyph unicode="&#x153;" horiz-adv-x="1697" d="M61 471q0 254 130.5 385t365.5 131q203 0 328 -100q125 100 311 100q240 0 349 -152q95 -133 96 -343q0 -31 -3 -64h-587q4 -160 43 -223.5t131 -63.5q86 0 128 44t56 137q12 0 62.5 -4.5t96.5 -7.5t64 -3q-18 -160 -128.5 -253t-311.5 -93q-195 0 -318 88 q-125 -88 -317 -88q-238 0 -367 126t-129 384zM403 469q0 -205 37 -274.5t117 -69.5q78 0 116 69.5t38 274.5q0 211 -38 284.5t-118 73.5q-78 0 -115 -73.5t-37 -284.5zM1051 512h206q27 0 36.5 10t9.5 45q0 256 -119 256q-68 0 -99.5 -67.5t-33.5 -243.5z" />
<glyph unicode="&#x178;" horiz-adv-x="1716" d="M37 1227v186q279 -6 436 -6l434 6q-2 -47 -2 -93.5t2 -92.5h-69q-99 0 -100 -76q0 -38 26 -96q78 -182 205 -385q115 217 188 385q28 61 28 100q0 72 -91 72h-56v186q207 -6 324 -6l319 6q-2 -45 -2 -91.5t2 -94.5h-43q-125 0 -181 -34t-105 -118q-59 -102 -310 -588 v-188q0 -63 24 -88t97 -25h101q-2 -47 -2 -94.5t2 -95.5q-272 4 -426 4l-428 -4q2 20 2 94t-2 96h104q74 0 93.5 25t19.5 88v186q-219 438 -320 613q-39 68 -93 98.5t-144 30.5h-33zM680 1663q0 53 34 86t85 33q53 0 87 -33t34 -86q0 -55 -33 -87t-88 -32q-51 0 -85 33 t-34 86zM1032 1663q0 53 34 86t85 33q53 0 87 -33t34 -86q0 -55 -34 -87t-87 -32q-51 0 -85 33t-34 86z" />
<glyph unicode="&#x2c6;" horiz-adv-x="1089" d="M217 1102q61 147 236 299h137q61 -49 127.5 -132t105.5 -167l-18 -23q-61 20 -147.5 68.5t-141.5 95.5q-53 -45 -138 -94t-142 -68z" />
<glyph unicode="&#x2dc;" horiz-adv-x="1089" d="M233 1104q-21 62 -20 111q0 64 34 107q60 77 175 77q119 0 201 -121q55 -82 102 -82q43 0 58 39q7 17 7 42q0 34 -12 85l51 14q22 -61 22 -110q0 -62 -34 -105q-61 -78 -174 -78q-127 0 -203 121q-33 47 -52 64.5t-50 17.5q-41 0 -57 -38q-7 -16 -7 -41q0 -35 13 -87z " />
<glyph unicode="&#x2000;" horiz-adv-x="944" />
<glyph unicode="&#x2001;" horiz-adv-x="1890" />
<glyph unicode="&#x2002;" horiz-adv-x="944" />
<glyph unicode="&#x2003;" horiz-adv-x="1890" />
<glyph unicode="&#x2004;" horiz-adv-x="628" />
<glyph unicode="&#x2005;" horiz-adv-x="471" />
<glyph unicode="&#x2006;" horiz-adv-x="313" />
<glyph unicode="&#x2007;" horiz-adv-x="313" />
<glyph unicode="&#x2008;" horiz-adv-x="235" />
<glyph unicode="&#x2009;" horiz-adv-x="376" />
<glyph unicode="&#x200a;" horiz-adv-x="104" />
<glyph unicode="&#x2010;" horiz-adv-x="577" d="M37 412v202q250 -8 506 0q-4 -102 0 -202q-256 8 -506 0z" />
<glyph unicode="&#x2011;" horiz-adv-x="577" d="M37 412v202q250 -8 506 0q-4 -102 0 -202q-256 8 -506 0z" />
<glyph unicode="&#x2012;" horiz-adv-x="577" d="M37 412v202q250 -8 506 0q-4 -102 0 -202q-256 8 -506 0z" />
<glyph unicode="&#x2013;" horiz-adv-x="1024" d="M43 395q4 109 0 221q469 -8 938 0q-4 -111 0 -221q-469 8 -938 0z" />
<glyph unicode="&#x2014;" horiz-adv-x="2048" d="M43 395q4 109 0 221q981 -8 1962 0q-4 -111 0 -221q-981 8 -1962 0z" />
<glyph unicode="&#x2018;" horiz-adv-x="536" d="M102 1077q0 127 83 231.5t259 125.5l11 -50q-137 -20 -207 -98q-66 -74 -66 -180v-12q29 57 109 57q57 0 92 -34t35 -97.5t-42 -105.5t-114 -42q-74 0 -117 51.5t-43 153.5z" />
<glyph unicode="&#x2019;" horiz-adv-x="536" d="M82 922q135 20 205.5 98t64.5 188q-29 -53 -104 -53q-57 0 -92 35t-35 98.5t40 104.5t113 41q160 0 160 -205q0 -80 -27.5 -148.5t-107.5 -130t-207 -78.5z" />
<glyph unicode="&#x201a;" horiz-adv-x="536" d="M82 -186q135 20 205.5 98t64.5 188q-29 -53 -104 -53q-57 0 -92 35t-35 98.5t40 104.5t113 41q160 0 160 -205q0 -80 -27.5 -148.5t-107.5 -130t-207 -78.5z" />
<glyph unicode="&#x201c;" horiz-adv-x="921" d="M102 1077q0 127 83 231.5t259 125.5l11 -50q-137 -20 -207 -98q-66 -74 -66 -180v-12q29 57 109 57q57 0 92 -34t35 -97.5t-42 -105.5t-114 -42q-74 0 -117 51.5t-43 153.5zM487 1077q0 127 83 231.5t259 125.5l11 -50q-137 -20 -207 -98q-66 -74 -66 -180v-12 q29 57 109 57q57 0 92 -34t35 -97.5t-42 -105.5t-114 -42q-74 0 -117 51.5t-43 153.5z" />
<glyph unicode="&#x201d;" horiz-adv-x="921" d="M82 934q135 20 206 98q65 72 65 171q0 9 -1 18q-29 -53 -104 -54q-57 0 -92 35t-35 98.5t40 104.5t113 41q160 0 160 -205q0 -80 -27.5 -148.5t-107.5 -130t-207 -77.5zM467 934q135 20 206 98q65 72 65 171q0 9 -1 18q-29 -53 -104 -54q-57 0 -92 35t-35 98.5t40 104.5 t113 41q160 0 160 -205q0 -80 -27.5 -148.5t-107.5 -130t-207 -77.5z" />
<glyph unicode="&#x201e;" horiz-adv-x="921" d="M82 -186q135 20 206 98q65 72 65 171q0 9 -1 17q-29 -53 -104 -53q-57 0 -92 35t-35 98.5t40 104.5t113 41q160 0 160 -205q0 -80 -27.5 -148.5t-107.5 -130t-207 -78.5zM467 -186q135 20 206 98q65 72 65 171q0 9 -1 17q-29 -53 -104 -53q-57 0 -92 35t-35 98.5 t40 104.5t113 41q160 0 160 -205q0 -80 -27.5 -148.5t-107.5 -130t-207 -78.5z" />
<glyph unicode="&#x2022;" horiz-adv-x="929" d="M94 500q0 170 100.5 266t268.5 96q174 0 273.5 -99t99.5 -269t-99.5 -264.5t-273.5 -94.5q-170 0 -269.5 94.5t-99.5 270.5z" />
<glyph unicode="&#x2026;" horiz-adv-x="1720" d="M102 150q0 78 52.5 127t132.5 49q86 0 135 -49.5t49 -129.5q0 -82 -48 -128t-136 -46q-84 0 -134.5 45.5t-50.5 131.5zM676 150q0 78 52 127t132 49q86 0 135 -49.5t49 -129.5q0 -82 -48 -128t-136 -46q-84 0 -134 45.5t-50 131.5zM1249 150q0 78 52.5 127t132.5 49 q86 0 135 -49.5t49 -129.5q0 -82 -48 -128t-136 -46q-84 0 -134.5 45.5t-50.5 131.5z" />
<glyph unicode="&#x202f;" horiz-adv-x="376" />
<glyph unicode="&#x2039;" horiz-adv-x="577" d="M86 449v135l371 295l24 -21q-23 -74 -81 -177t-113 -171q51 -63 110.5 -165.5t83.5 -172.5l-26 -20q-189 160 -369 297z" />
<glyph unicode="&#x203a;" horiz-adv-x="577" d="M96 858l27 21l371 -295v-135q-127 -94 -371 -297l-25 20q25 70 82.5 172t110.5 166q-55 68 -113.5 171t-81.5 177z" />
<glyph unicode="&#x205f;" horiz-adv-x="471" />
<glyph unicode="&#x20ac;" horiz-adv-x="1259" d="M53 479v152l70 -2v127l-70 -2q2 16 2 74.5t-2 76.5l84 -2q43 244 194.5 372t397.5 128q229 0 351 -88t122 -225q0 -86 -46 -129t-126 -43q-78 0 -120 37.5t-42 103.5q0 76 58 112q45 29 106 29q17 0 35 -2q-84 61 -215 62q-150 0 -229.5 -84t-104.5 -279l277 8 q-4 -18 -4 -76.5t4 -74.5l-285 6q-2 -33 -2 -67.5t2 -69.5l283 8q-4 -27 -4.5 -65t4.5 -87l-275 6q25 -195 106 -283.5t228 -88.5q154 0 217 61q-17 -2 -33 -2q-59 0 -106 30q-59 38 -60 120q0 70 43 109.5t123 39.5q82 0 127 -49t45 -146q0 -139 -116.5 -228t-362.5 -89 q-252 0 -402.5 124t-191.5 398z" />
<glyph unicode="&#x2122;" horiz-adv-x="1474" d="M47 1411q37 -2 162 -2h252q129 0 157 2q-6 -76 -5 -142q0 -53 3 -100h-100l-2 60q-6 70 -53 69h-43q-2 -91 -2 -153q0 -94 4 -125q4 -51 53 -51h31q-2 -12 -2 -49t2 -50q-111 2 -170 2l-168 -2v99h29q49 0 53 51q3 53 3 122.5t-3 155.5h-39q-53 0 -55 -69l-2 -60h-101 q3 26 3 71q0 22 -1 49q-2 81 -6 122zM651 870q2 12 2 49t-2 50h33q47 0 51 57q2 27 2 119t-2 119q-2 49 -51 49h-31v98q71 -2 140 -2t137 2q55 -115 131 -233q82 147 121 233q59 -2 120.5 -2t124.5 2q-2 -12 -2 -49t2 -49h-30q-43 0 -47 -49q-2 -25 -2 -116t2 -124 q2 -31 11 -43t36 -12h30q-2 -12 -2 -49t2 -50q-111 2 -170 2l-165 -2v99h28q45 0 49 55v190q-141 -258 -151 -280h-41q-70 133 -156 278v-186q4 -57 53 -57h33v-99q-80 2 -125 2z" />
<glyph unicode="&#xe000;" horiz-adv-x="960" d="M0 960h960v-960h-960v960z" />
<glyph unicode="&#xfb01;" horiz-adv-x="1292" d="M33 -4q2 18 2 79.5t-2 80.5h51q74 0 80 92q4 43 4 235q0 128 -2 324l-121 -4v155l119 -4v9q-2 240 118.5 352t376.5 112q174 0 275.5 -62t101.5 -163q0 -72 -40 -109.5t-109 -37.5q-143 0 -144 127q0 111 117 121q-45 18 -117 18q-125 0 -188 -61.5t-63 -215.5v-88 q508 0 634 11q-4 -115 -4 -369t4 -340q2 -61 25 -81.5t82 -20.5h29q-2 -29 -2 -85.5t2 -74.5q-188 4 -293 4l-293 -4q2 18 2 74.5t-2 85.5h26q53 0 74 20.5t23 77.5q4 68 4 223.5t-4 224.5q-4 59 -26.5 83t-74.5 26q-31 2 -209 2q0 -514 4.5 -565t19.5 -71.5t69 -20.5h32 q-2 -40 -2 -80t2 -80q-184 4 -288 4z" />
<glyph unicode="&#xfb02;" horiz-adv-x="1288" d="M31 -4q2 18 2 79.5t-2 80.5h51q72 0 82 92q4 52 4 242q0 127 -2 317l-123 -4v155l121 -4v45v19q0 197 83 301q87 109 259 108q94 0 162 -36v22q379 0 458 6q-4 -100 -4 -586.5t4 -556.5q4 -68 26 -94t79 -26h29q-2 -37 -2.5 -77t2.5 -83q-193 4 -297 4l-287 -4 q2 18 2 74.5t-2 85.5h31q49 0 68.5 26.5t23.5 93.5q4 66 4 435.5t-4 427.5q-4 70 -29 94q2 -12 2 -27q0 -152 -149 -151q-61 0 -97.5 34.5t-36.5 92.5q0 59 39 91t101 32l39 -5q-45 31 -105 31q-100 0 -132 -91q-11 -32 -11 -72q0 -76 39 -185l12 -31l147 6v-155l-126 4 q-2 -194 -2 -323q0 -192 4 -236q6 -92 84 -92h36q-2 -18 -2 -80t2 -80q-180 4 -286 4z" />
<glyph unicode="&#xfb03;" horiz-adv-x="1929" d="M31 -4q2 18 2 79.5t-2 80.5h51q72 0 82 92q4 52 4 242q0 127 -2 317l-123 -4v155l121 -4v45v19q0 409 350 409q135 0 196.5 -63.5t61.5 -155.5q0 -154 -141 -153q-66 0 -100.5 33.5t-34.5 93.5q0 70 50 100q38 23 87 23q17 0 35 -2q-47 29 -103 28q-100 0 -133 -90 q-12 -34 -12 -78q0 -75 35 -180l14 -35h332v23q-2 229 120.5 342.5t376.5 113.5q180 0 273.5 -61t93.5 -164q0 -72 -42 -109.5t-116 -37.5q-66 0 -103.5 34.5t-37.5 92.5q0 111 129 121q-51 23 -123 22q-125 0 -183.5 -59.5t-58.5 -210.5v-99q485 0 633 11q-2 -115 -2 -369 t2 -340q2 -61 24.5 -81.5t82.5 -20.5h28v-160q-186 4 -290 4l-295 -4q2 18 2 74.5t-2 85.5h28q51 0 72 20.5t23 77.5q4 68 4 223.5t-4 224.5q-2 59 -24.5 83t-70.5 26q-31 2 -213 2q0 -514 5 -565q4 -49 20 -70.5t66 -21.5h34v-160q-184 4 -288 4l-285 -4v160h47q70 0 76 92 q2 25 2 166t-2 399h-316q-3 -152 -3 -272q0 -181 8 -293q6 -92 90 -92h39q-2 -18 -2.5 -80t2.5 -80q-188 4 -293 4z" />
<glyph unicode="&#xfb04;" horiz-adv-x="1925" d="M31 -4q2 18 2 79.5t-2 80.5h49q74 0 84 92q4 52 4 242q0 127 -2 317l-123 -4v155l121 -4v45v19q0 197 83 301q87 109 259 108q137 0 200.5 -64.5t63.5 -166.5q0 -141 -141 -141q-63 0 -98 33.5t-35 93.5q0 63 46 97q35 26 87 26q16 0 33 -2q-41 29 -99 28 q-100 0 -133 -90q-12 -32 -12 -74q0 -76 39 -184l12 -33l332 -2v51v19q0 197 85 301q89 109 261 108q92 0 158 -34v20q379 0 458 6q-2 -119 -2 -586.5t2 -556.5q4 -68 25.5 -94t79.5 -26h30q-2 -29 -2 -85.5t2 -74.5q-188 4 -292 4l-293 -4v160h30q55 0 72 24.5t21 95.5 q2 66 2 435.5t-2 427.5q-4 66 -27 92q2 -18 2 -34q0 -58 -29 -95q-37 -47 -114 -47q-63 0 -97 33.5t-34 95t45 95.5q35 26 86 26q16 0 32 -2q-39 29 -98 28q-100 0 -131 -96q-11 -34 -11 -74q0 -76 38 -178l12 -33l147 8v-155l-127 6q-2 -182 -1 -308q0 -189 4 -253 q6 -92 86 -92h34v-160q-184 4 -286 4l-287 -4v160h43q68 0 78 92q4 53 3 246q0 129 -1 321l-314 -2q-4 -179 -3 -311q0 -164 6 -254q6 -92 92 -92h37v-160q-193 4 -297 4z" />
</font>
</defs>
</svg>
