<?xml version="1.0" standalone="no"?>
<!DOCTYPE svg PUBLIC "-//W3C//DTD SVG 1.1//EN" "http://www.w3.org/Graphics/SVG/1.1/DTD/svg11.dtd" >
<svg xmlns="http://www.w3.org/2000/svg">
<metadata>
This is a custom SVG webfont generated by Fontspring.
</metadata>
<defs>
<font id="webfont8VbsAwew" horiz-adv-x="1136" >
<font-face units-per-em="2048" ascent="1536" descent="-512" />
<missing-glyph horiz-adv-x="512" />
<glyph unicode=" "  horiz-adv-x="512" />
<glyph unicode="&#x09;" horiz-adv-x="512" />
<glyph unicode="&#xa0;" horiz-adv-x="512" />
<glyph unicode="!" horiz-adv-x="505" d="M150 1446h204l-12 -1049h-178zM152 0v201h204v-201h-204z" />
<glyph unicode="&#x22;" horiz-adv-x="704" d="M131 1036v434h156v-434h-156zM418 1036v434h155v-434h-155z" />
<glyph unicode="#" horiz-adv-x="1468" d="M86 391l25 152h268l61 344h-266l25 149h266l72 410h165l-71 -410h317l72 410h168l-72 -410h266l-24 -149h-268l-62 -344h266l-24 -152h-266l-68 -391h-168l70 391h-318l-69 -391h-166l69 391h-268zM545 543h317l62 344h-318z" />
<glyph unicode="$" horiz-adv-x="1112" d="M86 197l111 145q6 -6 18 -16.5t51 -38t80 -48t100.5 -37t118.5 -16.5q109 0 181.5 58.5t72.5 154.5q0 78 -72.5 133.5t-177 94.5t-209 86t-177 134t-72.5 210q0 143 105.5 247.5t275.5 129.5v223h145v-221q102 -8 189 -43t124 -66l37 -33l-88 -157q-16 14 -44 34.5 t-110.5 55.5t-162.5 35q-119 0 -193 -56.5t-74 -144.5q0 -70 52.5 -123t131.5 -83t171 -70t171 -79.5t131 -115.5t52 -178q0 -156 -105.5 -268.5t-281.5 -133.5v-219h-145v219q-231 23 -390 170z" />
<glyph unicode="%" horiz-adv-x="1536" d="M88 1167q0 125 90 214t219 89t220.5 -89t91.5 -214t-91.5 -214t-220.5 -89t-219 88t-90 215zM119 0l1106 1446h192l-1106 -1446h-192zM246 1167q0 -66 43 -108.5t108.5 -42.5t108.5 43t43 108q0 63 -44 108.5t-107.5 45.5t-107.5 -45.5t-44 -108.5zM829 279 q0 125 91.5 214t220.5 89q127 0 218 -89.5t91 -214t-91 -214t-218 -89.5q-131 0 -221.5 88.5t-90.5 215.5zM989 279q0 -66 44 -109t107.5 -43t107.5 44t44 107.5t-44 108.5t-107.5 45t-107.5 -45t-44 -108z" />
<glyph unicode="&#x26;" horiz-adv-x="1382" d="M100 403q0 127 71 230.5t191 142.5v4q-8 2 -21 8.5t-48 31t-61.5 57t-48 92t-21.5 129.5q0 174 129 273t334 99l180 -22l-51 -162q-59 12 -109 12q-121 0 -198.5 -59t-77.5 -162q0 -41 11 -76.5t37.5 -72.5t83 -59.5t136.5 -22.5h307v201h199v-201h190v-168h-190v-197 q0 -240 -139.5 -373t-378.5 -133q-233 0 -379 122t-146 306zM307 420q0 -115 86 -188.5t232 -73.5q150 0 234.5 83t84.5 248v189h-317q-154 0 -237 -68.5t-83 -189.5z" />
<glyph unicode="'" horiz-adv-x="419" d="M131 1036v434h158v-434h-158z" />
<glyph unicode="(" horiz-adv-x="643" d="M141 696q0 430 238 809h174q-231 -387 -231 -811q0 -475 231 -889h-174q-238 395 -238 891z" />
<glyph unicode=")" horiz-adv-x="643" d="M90 -195q231 420 232 889q0 424 -232 811h174q238 -379 238 -809q0 -496 -238 -891h-174z" />
<glyph unicode="*" horiz-adv-x="980" d="M84 1085l55 172l273 -102l-17 291h187l-17 -291l275 102l57 -172l-283 -75v-4l183 -226l-148 -106l-157 241h-5l-157 -241l-148 106l183 226v4z" />
<glyph unicode="+" horiz-adv-x="1255" d="M86 504v160h459v503h168v-503h456v-160h-456v-504h-168v504h-459z" />
<glyph unicode="," horiz-adv-x="534" d="M41 -254l143 469h209l-194 -469h-158z" />
<glyph unicode="-" horiz-adv-x="974" d="M188 496v176h598v-176h-598z" />
<glyph unicode="." horiz-adv-x="524" d="M156 0v215h213v-215h-213z" />
<glyph unicode="/" horiz-adv-x="868" d="M84 -86l522 1610h176l-522 -1610h-176z" />
<glyph unicode="0" horiz-adv-x="1269" d="M123 725q0 745 512 745q139 0 241.5 -57t160 -160.5t84 -233.5t26.5 -294t-26.5 -295t-84 -235.5t-160 -162t-241.5 -57.5q-512 0 -512 750zM332 725q0 -567 303 -567t303 567q0 565 -303 565t-303 -565z" />
<glyph unicode="1" horiz-adv-x="980" d="M94 1110l346 336h181v-1278h315v-168h-832v168h320v942l2 88h-4q-16 -31 -70 -82l-135 -133z" />
<glyph unicode="2" horiz-adv-x="1200" d="M100 111q0 104 40 194t103.5 154.5t140.5 123t152.5 109.5t139 102.5t103.5 116t40 136.5q0 111 -71.5 177t-188.5 66q-84 0 -158.5 -48t-107.5 -95l-33 -49l-143 98q6 10 16 29.5t51 66.5t88 83t129 65.5t174 29.5q201 0 329 -114.5t128 -300.5q0 -94 -39 -176 t-101.5 -142.5t-137.5 -115.5l-152 -106q-76 -50 -138.5 -100t-102 -113.5t-39.5 -133.5h589v192h179v-360h-979q-11 66 -11 111z" />
<glyph unicode="3" horiz-adv-x="1167" d="M86 172l107 145l17 -17q11 -11 47 -39t75 -48t97 -37.5t116 -17.5q123 0 210 77.5t87 196.5q0 125 -91.5 196.5t-228.5 71.5q-66 0 -86 -4l-47 107l352 424q10 12 24 25l21 22l11 6v4q-45 -6 -74 -6h-404v-184h-178v352h883v-141l-383 -451q160 -16 285 -119.5 t125 -294.5q0 -193 -138.5 -329t-357.5 -136q-84 0 -163 20.5t-132 49.5t-94 57.5t-60 49.5z" />
<glyph unicode="4" horiz-adv-x="1226" d="M53 387v127l670 932h229v-895h197v-164h-197v-387h-198v387h-701zM274 551h480v567l10 111h-6q-23 -51 -53 -96l-431 -578v-4z" />
<glyph unicode="5" horiz-adv-x="1155" d="M86 162l107 143q14 -16 39.5 -40.5t111.5 -65.5t178 -41q137 0 231.5 86t94.5 209q0 135 -90 217t-238 82q-68 0 -131 -18.5t-94 -37.5l-29 -18l-119 43l72 725h748v-352h-179v184h-393l-37 -346l-10 -58h4q80 45 205 46q221 0 360.5 -131.5t139.5 -327.5 q0 -205 -149.5 -345.5t-375.5 -140.5q-248 0 -419 158z" />
<glyph unicode="6" horiz-adv-x="1222" d="M115 651q0 150 40 291t116.5 261t206.5 193.5t294 73.5q74 0 142.5 -14t101.5 -31l33 -14l-64 -170q-92 49 -209 49q-186 0 -297.5 -144.5t-138.5 -346.5h4q47 61 137 99t191 38q201 0 329.5 -136t128.5 -337q0 -213 -135 -350.5t-340 -137.5q-238 0 -389 186.5 t-151 489.5zM328 545q0 -137 94 -262t231 -125q125 0 198 85t73 220t-82 219t-228 84q-119 0 -202.5 -66.5t-83.5 -154.5z" />
<glyph unicode="7" horiz-adv-x="1112" d="M82 1094v352h991v-139l-653 -1307h-209l598 1208q10 20 21.5 39t17.5 27l6 6v4q-37 -6 -84 -6h-510v-184h-178z" />
<glyph unicode="8" horiz-adv-x="1228" d="M111 408q0 229 233 393q-176 117 -176 291q0 156 117.5 267t332.5 111q205 0 332 -104t127 -276q0 -90 -41 -182.5t-71.5 -130.5t-59.5 -66q207 -121 207 -314q0 -172 -138 -297t-358 -125q-217 0 -361 123.5t-144 309.5zM315 428q0 -121 88.5 -197.5t210.5 -76.5 q117 0 204 69.5t87 173.5q0 41 -17.5 76t-39 58.5t-69.5 50t-82 42.5l-102 45l-108 46q-172 -129 -172 -287zM369 1090q0 -35 10 -65t33.5 -55.5t45 -43t64.5 -40t69 -33.5l82 -35l81 -34q125 147 125 283q0 106 -71 166.5t-190 60.5q-117 0 -183 -58t-66 -146z" />
<glyph unicode="9" horiz-adv-x="1222" d="M92 985q0 213 135 349t342 136q238 0 388.5 -187t150.5 -488q0 -147 -40 -288.5t-117 -262.5t-207 -195t-293 -74q-164 0 -279 60l64 172q92 -49 210 -49q188 0 300 144t139 347h-4q-47 -59 -138.5 -95t-191.5 -36q-201 0 -330 134t-129 333zM301 985q0 -131 81 -214 t222 -83q119 0 205 65.5t86 153.5q0 137 -96.5 260t-229.5 123q-123 0 -195.5 -86t-72.5 -219z" />
<glyph unicode=":" horiz-adv-x="610" d="M199 0v215h213v-215h-213zM199 821v215h213v-215h-213z" />
<glyph unicode=";" horiz-adv-x="612" d="M88 -254l125 469h209l-174 -469h-160zM209 821v215h209v-215h-209z" />
<glyph unicode="&#x3c;" horiz-adv-x="1255" d="M119 516v135l954 426v-182l-731 -309v-4l731 -310v-182z" />
<glyph unicode="=" horiz-adv-x="1255" d="M139 309v160h977v-160h-977zM139 696v160h977v-160h-977z" />
<glyph unicode="&#x3e;" horiz-adv-x="1255" d="M180 90v182l733 310v4l-733 309v182l957 -426v-135z" />
<glyph unicode="?" horiz-adv-x="960" d="M74 1343q14 14 42.5 36t123 59t192.5 37q178 0 303 -104.5t125 -270.5q0 -94 -37 -169t-90 -125t-107.5 -96t-91 -103.5t-36.5 -125.5v-84h-195v97q0 86 36 156.5t87 119.5l102 94q51 45 87 101.5t36 119.5q0 86 -66.5 144.5t-166.5 58.5q-57 0 -115.5 -21.5t-89.5 -41.5 l-29 -23zM297 0v201h207v-201h-207z" />
<glyph unicode="@" horiz-adv-x="1611" d="M88 495.5q0 319.5 218 537.5t556 218q250 0 378 -119.5t128 -295.5v-580h148v-150h-560q-186 0 -305 114t-119 274q0 158 118 270.5t306 112.5h222q-2 88 -90.5 149t-231.5 61q-244 0 -406.5 -175t-162.5 -420.5t163.5 -415.5t417.5 -170v-162q-340 0 -560 216 t-220 535.5zM733 494q0 -98 68.5 -168t171.5 -70h205v483h-201q-106 0 -175 -71.5t-69 -173.5z" />
<glyph unicode="A" horiz-adv-x="1476" d="M23 0v160h139l461 1286h231l461 -1286h139v-160h-502v160h154l-113 321h-512l-112 -321h155v-160h-501zM532 645h410l-176 502q-8 27 -14.5 54.5t-8.5 41.5l-2 14h-6q-6 -51 -24 -110z" />
<glyph unicode="B" horiz-adv-x="1392" d="M109 0v160h180v1128h-180v158h657q160 0 254 -43q88 -39 143.5 -126t55.5 -200q0 -104 -48.5 -186t-134.5 -125v-4q115 -33 177.5 -128t62.5 -222q0 -139 -75 -242.5t-191 -142.5q-82 -27 -217 -27h-684zM494 168h307q80 0 129 20q63 27 100 89.5t37 144.5 q0 113 -68.5 180.5t-181.5 67.5h-323v-502zM494 838h303q98 0 155.5 61.5t57.5 159.5q0 137 -95 190q-57 29 -149 29h-272v-440z" />
<glyph unicode="C" horiz-adv-x="1523" d="M100 731q0 317 212 528t528 211q74 0 160.5 -14t178 -44t152 -90t60.5 -138v-176h-191v112q0 59 -62.5 100.5t-138 57.5t-151.5 16q-233 0 -385 -155.5t-152 -399.5q0 -256 156 -420.5t393 -164.5q66 0 141.5 13t147.5 54t72 103v112h190v-176q0 -76 -58.5 -134 t-149.5 -89t-182 -46.5t-173 -15.5q-324 0 -536 218.5t-212 537.5z" />
<glyph unicode="D" horiz-adv-x="1595" d="M109 0v160h180v1128h-180v158h616q190 0 307 -35q211 -66 334 -247t123 -441t-121 -438.5t-336 -245.5q-119 -39 -305 -39h-618zM494 168h221q152 0 246 37q147 51 231 186t84 332t-83 333t-230 189q-92 33 -248 33h-221v-1110z" />
<glyph unicode="E" horiz-adv-x="1294" d="M109 0v160h180v1128h-180v158h1046v-336h-178v168h-483v-465h512v-168h-512v-477h518v174h178v-342h-1081z" />
<glyph unicode="F" horiz-adv-x="1181" d="M109 0v160h180v1128h-180v158h1001v-342h-178v166h-438v-479h499v-168h-499v-463h196v-160h-581z" />
<glyph unicode="G" horiz-adv-x="1568" d="M100 727q0 324 211 533.5t547 209.5q131 0 256 -31.5t212 -99t87 -153.5v-178h-188v106q0 84 -109.5 132t-251.5 48q-252 0 -401.5 -154.5t-149.5 -406.5q0 -254 152.5 -416.5t404.5 -162.5q78 0 160 14t154.5 57t72.5 109v190h-282v160h471v-405q0 -80 -60.5 -141.5 t-154.5 -95.5t-190.5 -50.5t-184.5 -16.5q-332 0 -544 214t-212 538z" />
<glyph unicode="H" horiz-adv-x="1736" d="M109 0v160h180v1128h-180v158h567v-158h-182v-481h749v481h-182v158h567v-158h-180v-1128h180v-160h-567v160h182v479h-749v-479h182v-160h-567z" />
<glyph unicode="I" horiz-adv-x="782" d="M109 0v160h180v1128h-180v158h567v-158h-182v-1128h182v-160h-567z" />
<glyph unicode="J" d="M49 403v84h199v-63q0 -115 55 -190.5t168 -75.5q96 0 157.5 64.5t61.5 201.5v864h-209v158h576v-158h-162v-876q0 -217 -126 -327t-300 -110t-297 106.5t-123 321.5z" />
<glyph unicode="K" horiz-adv-x="1417" d="M109 0v160h180v1128h-180v158h542v-158h-157v-454h186l315 454h-133v158h490v-158h-140l-374 -522v-4q41 -18 82 -96l260 -453q31 -53 102 -53h68v-160h-146q-86 0 -126 22.5t-74 86.5l-279 499q-35 57 -113 58h-118v-506h178v-160h-563z" />
<glyph unicode="L" horiz-adv-x="1236" d="M111 0v160h180v1118h-180v168h567v-168h-182v-1110h503v233h181v-401h-1069z" />
<glyph unicode="M" horiz-adv-x="1961" d="M78 0v160h180l92 1128h-184v158h409l371 -881l33 -104h4q10 45 33 104l370 881h410v-158h-184l92 -1128h180v-160h-557v160h174l-65 864l6 119h-6q-16 -70 -33 -111l-332 -760h-180l-332 760l-33 111h-6l6 -119l-65 -864h174v-160h-557z" />
<glyph unicode="N" horiz-adv-x="1716" d="M109 0v160h180v1128h-180v158h383l710 -1036l49 -105h6q-10 72 -10 117v866h-184v158h571v-158h-182v-1288h-201l-710 1036q-12 18 -24.5 44t-18.5 42l-6 19h-7l9 -117v-864h186v-160h-571z" />
<glyph unicode="O" horiz-adv-x="1683" d="M98 733q0 311 214 524t530 213q313 0 528 -213t215 -524q0 -319 -215 -538.5t-528 -219.5q-315 0 -529.5 219.5t-214.5 538.5zM309 733q0 -244 154.5 -409.5t378.5 -165.5q221 0 375.5 165.5t154.5 409.5q0 236 -154.5 396.5t-375.5 160.5q-223 0 -378 -160.5 t-155 -396.5z" />
<glyph unicode="P" horiz-adv-x="1337" d="M109 0v160h180v1128h-180v158h673q162 0 248 -39q113 -47 179.5 -156.5t66.5 -253.5q0 -152 -74 -266.5t-198 -157.5q-84 -31 -218 -30h-292v-383h182v-160h-567zM494 711h268q92 0 162 28q145 66 145 258q0 178 -129 246q-63 35 -176 35h-270v-567z" />
<glyph unicode="Q" horiz-adv-x="1689" d="M100 731q0 313 213 526t530.5 213t531.5 -207.5t214 -521.5q0 -281 -174 -487l172 -164l-117 -127l-170 170q-193 -158 -458 -158q-313 0 -527.5 219.5t-214.5 536.5zM311 731q0 -242 153.5 -407.5t379.5 -165.5q188 0 315 108l-213 211l117 125l211 -213 q109 156 108 344q0 236 -155.5 396.5t-382.5 160.5q-225 0 -379 -159.5t-154 -399.5z" />
<glyph unicode="R" horiz-adv-x="1437" d="M109 0v160h180v1128h-180v158h626q174 0 266 -31q117 -39 184.5 -135t67.5 -240q0 -156 -79.5 -263t-219.5 -142v-4q37 -20 62 -68l205 -356q27 -47 100 -47h43v-160h-123q-90 0 -126 20.5t-75 88.5l-223 395q-29 47 -58.5 63.5t-92.5 16.5h-172v-424h178v-160h-563z M494 752h290q119 0 191 72.5t72 199.5q0 172 -136 227q-68 27 -178 27h-239v-526z" />
<glyph unicode="S" horiz-adv-x="1183" d="M109 283v151h188v-106q0 -78 85 -124t204 -46q129 0 207.5 58t78.5 163q0 74 -52 131t-102 81.5t-163 67.5l-31 13q-90 35 -143 60.5t-116.5 72.5t-94.5 115.5t-31 160.5q0 193 132 291t331 98q176 0 307 -63.5t131 -175.5v-170h-190v100q0 59 -76 94t-172 35 q-111 0 -182.5 -51t-71.5 -147q0 -45 18.5 -82t40 -59.5t72.5 -49.5t79 -38l97 -38q84 -31 129 -50t111 -58t99.5 -78t59 -102.5t25.5 -141.5q0 -199 -141 -309.5t-352 -110.5q-186 0 -331.5 81.5t-145.5 226.5z" />
<glyph unicode="T" horiz-adv-x="1359" d="M59 1053v393h1241v-393h-178v225h-340v-1118h183v-160h-570v160h183v1118h-340v-225h-179z" />
<glyph unicode="U" horiz-adv-x="1632" d="M63 1288v158h570v-158h-182v-747q0 -147 55 -236q92 -147 311 -147t311 151q55 94 56 234v745h-183v158h568v-158h-180v-749q0 -209 -101 -353q-72 -102 -196.5 -156.5t-274.5 -54.5q-154 0 -277.5 55.5t-197.5 155.5q-96 131 -96 353v749h-183z" />
<glyph unicode="V" horiz-adv-x="1462" d="M25 1288v158h516v-158h-160l324 -952q16 -51 24 -113h6q8 61 25 113l323 952h-159v158h516v-158h-144l-456 -1288h-217l-457 1288h-141z" />
<glyph unicode="W" horiz-adv-x="2066" d="M33 1288v158h514v-158h-172l225 -948l16 -109h7q8 57 20 109l303 1106h174l301 -1106q14 -51 21 -109h8q4 57 14 109l226 948h-172v158h516v-158h-140l-323 -1288h-234l-282 1026l-19 115h-8q-4 -63 -18 -115l-283 -1026h-233l-322 1288h-139z" />
<glyph unicode="X" horiz-adv-x="1370" d="M61 0v160h136l372 571l-366 557h-133v158h503v-158h-153l239 -379l37 -57h4q12 27 35 57l232 379h-150v158h490v-158h-136l-374 -575l368 -553h138v-160h-504v160h151l-241 377l-37 59h-4l-4 -6l-13 -24l-16 -29l-234 -377h152v-160h-492z" />
<glyph unicode="Y" horiz-adv-x="1331" d="M20 1288v158h498v-158h-151l268 -454l29 -62h4q12 31 30 62l269 454h-150v158h494v-158h-137l-406 -676v-452h182v-160h-569v160h182v452l-405 676h-138z" />
<glyph unicode="Z" horiz-adv-x="1294" d="M111 0v135l745 1075l59 70v4q-41 -6 -81 -6h-535v-225h-178v393h1042v-133l-745 -1077l-60 -70v-4q41 6 82 6h566v233h178v-401h-1073z" />
<glyph unicode="[" horiz-adv-x="636" d="M199 -195v1700h338v-149h-164v-1399h164v-152h-338z" />
<glyph unicode="\" horiz-adv-x="866" d="M86 1524h176l520 -1610h-174z" />
<glyph unicode="]" horiz-adv-x="638" d="M100 -43h166v1399h-166v149h340v-1700h-340v152z" />
<glyph unicode="^" horiz-adv-x="1255" d="M141 506l410 940h129l410 -940h-181l-295 721l-292 -721h-181z" />
<glyph unicode="_" horiz-adv-x="1140" d="M20 0h1100v-160h-1100v160z" />
<glyph unicode="`" horiz-adv-x="1021" d="M285 1806h229l211 -260h-186z" />
<glyph unicode="a" d="M68 289q0 78 31.5 138t88 97t117 60.5t136 35t125.5 14.5t106 3h65v39q0 221 -221 221q-74 0 -147.5 -24.5t-110.5 -49.5l-39 -26l-80 141q6 4 17.5 13.5t51.5 29.5t82 36.5t108.5 30t133.5 13.5q199 0 301.5 -101.5t102.5 -297.5v-463q0 -45 45 -45h104v-154h-206 q-129 0 -129 113v14l8 68h-4l-12 -24q-7 -15 -36.5 -53t-64.5 -66.5t-97.5 -52.5t-131.5 -24q-141 0 -242.5 82t-101.5 232zM268 305q0 -74 50.5 -125t136.5 -51q125 0 204.5 104.5t79.5 231.5v43h-51q-420 0 -420 -203z" />
<glyph unicode="b" horiz-adv-x="1247" d="M0 1292v154h373v-479l-6 -86h4q4 8 11 19t37 43t64.5 55.5t94 43t127.5 19.5q209 0 332.5 -149.5t123.5 -393.5t-132 -393.5t-341 -149.5q-201 0 -309 156l-19 33h-4q6 -37 6 -82v-82h-188v1292h-174zM367 514q0 -150 76.5 -258.5t218.5 -108.5q127 0 211.5 99.5 t84.5 269.5q0 168 -80.5 269.5t-211.5 101.5q-127 0 -213 -93.5t-86 -279.5z" />
<glyph unicode="c" horiz-adv-x="1132" d="M82 516q0 236 157.5 390.5t391.5 154.5q63 0 128.5 -12.5t130 -38t105.5 -73.5t41 -112v-127h-176v72q0 55 -71.5 87t-151.5 32q-158 0 -255 -101.5t-97 -267.5q0 -172 104.5 -272.5t259.5 -100.5q80 0 161 33t103 49l68 52l76 -146q-174 -160 -416 -160 q-233 0 -396 148.5t-163 392.5z" />
<glyph unicode="d" horiz-adv-x="1288" d="M86 518q0 246 130 394.5t341 148.5q66 0 123 -18.5t92 -43t59.5 -50t34.5 -44.5l11 -18h4q-6 33 -7 78v327h-172v154h371v-1247q0 -45 45 -45h105v-154h-207q-129 0 -129 113v14l6 55h-4l-11 -22q-7 -14 -36 -50t-65 -63t-100.5 -49.5t-137.5 -22.5q-207 0 -330 149.5 t-123 393.5zM289 518q0 -168 81 -269.5t212 -101.5q125 0 212 93.5t87 275.5q0 154 -77 262.5t-216 108.5q-129 0 -214 -98.5t-85 -270.5z" />
<glyph unicode="e" d="M84 518q0 244 146.5 393.5t371.5 149.5q213 0 331 -137.5t118 -348.5l-7 -75h-757q8 -166 110.5 -259.5t247.5 -93.5q80 0 158 29t115 57l36 31l82 -145q-18 -16 -50 -40t-137.5 -64t-215.5 -40q-242 0 -395.5 155t-153.5 388zM295 627h551q-4 131 -75 203.5t-173 72.5 q-115 0 -199 -73.5t-104 -202.5z" />
<glyph unicode="f" horiz-adv-x="768" d="M88 883v153h172v51q0 117 39 197t103.5 115t118.5 48t112 13l94 -6v-164q-27 6 -74 6q-195 0 -194 -204v-56h250v-153h-250v-729h190v-154h-551v154h162v729h-172z" />
<glyph unicode="g" horiz-adv-x="1282" d="M88 542.5q0 229.5 122 374t333 144.5q109 0 202 -43t134 -127h4q-4 14 -4 41q0 104 118 104h222v-153h-115q-45 0 -45 -41v-799q0 -123 -44 -217t-120 -148.5t-166 -81t-192 -26.5q-182 0 -355 86l66 151q129 -70 284 -69q145 0 236.5 71.5t91.5 223.5v82l6 65h-4 q-100 -168 -311 -168t-337 150.5t-126 380zM291 547q0 -164 81 -263.5t218 -99.5q121 0 197.5 84t76.5 273q0 348 -293 348q-133 0 -206.5 -91t-73.5 -251z" />
<glyph unicode="h" horiz-adv-x="1380" d="M55 1292v154h371v-537l-6 -86h4q41 90 143.5 164t243.5 74q356 0 356 -397v-510h162v-154h-360v618q0 125 -41 193t-156 68q-152 0 -249 -113t-97 -281v-331h164v-154h-524v154h163v1138h-174z" />
<glyph unicode="i" horiz-adv-x="688" d="M88 883v153h371v-882h164v-154h-525v154h162v729h-172zM256 1243v203h209v-203h-209z" />
<glyph unicode="j" horiz-adv-x="606" d="M-33 -256q18 -2 45 -2t52.5 4t57.5 18.5t55.5 39t39.5 68.5t16 103v908h-174v153h373v-1067q0 -98 -29.5 -173t-72.5 -114.5t-100.5 -64.5t-102.5 -32t-92 -7l-68 4v162zM229 1243v203h209v-203h-209z" />
<glyph unicode="k" horiz-adv-x="1202" d="M55 1292v154h371v-807h152l206 244h-135v153h471v-153h-137l-256 -299v-4q2 0 11.5 -5.5t27.5 -27t37 -51.5l176 -301q25 -41 90 -41h66v-154h-156q-72 0 -104.5 18.5t-65.5 77.5l-205 350q-25 41 -96 41h-82v-333h139v-154h-499v154h163v1138h-174z" />
<glyph unicode="l" horiz-adv-x="600" d="M2 1292v154h371v-1139q0 -74 23.5 -110.5t86.5 -36.5l56 2l-2 -164q-41 -4 -88 -4q-274 0 -275 301v997h-172z" />
<glyph unicode="m" horiz-adv-x="2048" d="M88 883v153h234q131 0 131 -114v-54l-7 -59h5q41 98 145 175t223 77q252 0 303 -244h4q45 102 146.5 173t224.5 71q338 0 338 -397v-510h164v-154h-363v621q0 125 -37.5 192.5t-144.5 67.5q-139 0 -222 -120t-83 -284v-323h162v-154h-361v621q0 123 -35.5 191.5 t-144.5 68.5q-139 0 -225 -125t-86 -287v-315h164v-154h-525v154h162v686q0 43 -45 43h-127z" />
<glyph unicode="n" horiz-adv-x="1411" d="M88 883v153h234q131 0 131 -114v-54l-7 -59h5q10 27 36.5 63.5t72.5 81.5t124 76t170 31q176 0 260 -98.5t84 -298.5v-510h164v-154h-363v618q0 125 -39.5 193t-154.5 68q-152 0 -249 -118t-97 -280v-327h164v-154h-525v154h162v684q0 45 -45 45h-127z" />
<glyph unicode="o" horiz-adv-x="1282" d="M82 520.5q0 233.5 162 387t397.5 153.5t397 -153.5t161.5 -387t-163 -389.5t-396 -156t-396 156t-163 389.5zM285 520q0 -162 103.5 -267.5t252.5 -105.5q147 0 251.5 106.5t104.5 266.5t-104.5 264.5t-251.5 104.5q-150 0 -253 -104.5t-103 -264.5z" />
<glyph unicode="p" horiz-adv-x="1304" d="M59 883v153h230q127 0 127 -102v-8l-4 -60h4l11 22q7 13 36 46t64.5 58.5t99 47t137.5 21.5q207 0 331 -149.5t124 -393.5t-132.5 -393.5t-336.5 -149.5q-63 0 -120 18.5t-92.5 44t-61 51.5t-38.5 44l-10 19h-4q6 -37 6 -91v-317h164v-154h-524v154h161v1094q0 45 -45 45 h-127zM426 514q0 -150 78 -258.5t215 -108.5q127 0 213 99.5t86 269.5q0 168 -82 269.5t-213 101.5q-127 0 -212 -93.5t-85 -279.5z" />
<glyph unicode="q" horiz-adv-x="1247" d="M86 518q0 246 131 394.5t338 148.5q190 0 330 -180h4q-4 29 -4 71v84h188v-1292h162v-154h-522v154h161v326l7 90h-4q-4 -8 -11.5 -20.5t-36 -44.5t-63.5 -56.5t-95.5 -44t-127.5 -19.5q-209 0 -333 149.5t-124 393.5zM289 518q0 -168 81 -269.5t212 -101.5 q127 0 213 93.5t86 279.5q0 150 -77 259.5t-218 109.5q-127 0 -212 -100.5t-85 -270.5z" />
<glyph unicode="r" horiz-adv-x="866" d="M84 883v153h233q133 0 134 -121v-65l-5 -72h5q37 119 124 195t203 76l51 -5v-196q-25 6 -57 6q-154 0 -234.5 -128t-80.5 -298v-274h153v-154h-508v154h156v684q0 45 -45 45h-129z" />
<glyph unicode="s" horiz-adv-x="985" d="M82 223v111h174v-68q0 -61 71.5 -95t166.5 -34q90 0 149 35t59 98q0 66 -53 101t-176 78q-18 6 -29 10q-74 27 -117.5 48t-98 58t-81 89.5t-26.5 119.5q0 141 114.5 214t268.5 73q131 0 244.5 -53.5t113.5 -155.5v-125h-174v68q0 47 -53 76.5t-129 29.5q-78 0 -131 -32.5 t-53 -92.5q0 -35 17 -62.5t57 -50t73 -36t92 -33.5q76 -25 123 -45.5t104.5 -57t86 -90t28.5 -120.5q0 -143 -116.5 -224.5t-299.5 -81.5q-156 0 -280.5 66.5t-124.5 181.5z" />
<glyph unicode="t" horiz-adv-x="737" d="M37 883v153h178v285h195v-285h247v-153h-247v-486q0 -74 22.5 -125t60 -73.5t69.5 -30.5t69 -8l47 2v-166q-29 -4 -72 -4q-47 0 -92 6t-102.5 30.5t-99.5 64.5t-71.5 114t-29.5 172v504h-174z" />
<glyph unicode="u" horiz-adv-x="1361" d="M41 883v153h373v-622q0 -125 40 -191.5t154 -66.5q150 0 243 120.5t93 282.5v324h-174v153h373v-839q0 -45 45 -45h108v-152h-215q-131 0 -131 115v45l4 61h-4q-10 -27 -35.5 -62.5t-71.5 -79.5t-122 -74t-166 -30q-340 0 -340 398v510h-174z" />
<glyph unicode="v" horiz-adv-x="1189" d="M18 883v153h465v-153h-133l219 -604l23 -97h6q6 51 23 97l221 604h-133v153h462v-153h-129l-335 -883h-224l-333 883h-132z" />
<glyph unicode="w" horiz-adv-x="1753" d="M20 883v153h463v-153h-139l176 -602l17 -97h6q4 53 16 97l227 753h181l227 -753l16 -97h7q4 53 16 97l178 602h-141v153h463v-153h-129l-267 -883h-221l-219 692l-18 99h-5q-6 -51 -18 -99l-219 -692h-221l-266 883h-130z" />
<glyph unicode="x" horiz-adv-x="1171" d="M76 0v154h155l248 381l-229 348h-168v153h291l184 -301l35 -67h4q16 35 37 67l188 301h275v-153h-158l-231 -346l256 -383h139v-154h-264l-209 336l-37 65h-4q-14 -33 -37 -67l-205 -334h-270z" />
<glyph unicode="y" horiz-adv-x="1208" d="M18 883v153h474v-153h-138l232 -617q14 -45 18 -90h6q8 45 25 90l229 617h-133v153h459v-153h-129l-410 -1047q-51 -129 -146 -197.5t-218 -68.5q-131 0 -224 65l68 150q59 -49 148 -49q129 0 190 143l43 103l-362 901h-132z" />
<glyph unicode="z" horiz-adv-x="1079" d="M98 0v131l572 692q31 37 57 60v4q-43 -4 -84 -4h-360v-166h-174v319h858v-131l-568 -692q-31 -37 -57 -57v-4q41 2 82 2h383v165h174v-319h-883z" />
<glyph unicode="{" horiz-adv-x="690" d="M68 578v176q6 0 18 2t42 16t53.5 36.5t42 68t18.5 104.5v172q0 92 25.5 160.5t61.5 104.5t86 58.5t86 27.5t72 5l50 -2v-151h-29q-27 0 -51.5 -7.5t-56 -26.5t-51 -65.5t-19.5 -115.5v-211q0 -57 -17.5 -104.5t-42 -75t-48 -47t-42.5 -27.5l-16 -6v-4q6 -2 17.5 -6.5 t40 -25t50 -47t40 -74.5t18.5 -107v-236q0 -70 19.5 -116t51 -65.5t56 -26.5t51.5 -7h29v-152q-20 -4 -50 -4q-37 0 -72.5 5.5t-85.5 28t-86 58t-61.5 105.5t-25.5 162v196q0 59 -18.5 103.5t-43 66t-50.5 34.5t-44 15z" />
<glyph unicode="|" horiz-adv-x="563" d="M195 -326v1948h174v-1948h-174z" />
<glyph unicode="}" horiz-adv-x="690" d="M70 -45h28q27 0 50.5 7t55.5 26.5t51 65.5t19 116v236q0 59 17.5 107t41 75.5t48.5 46t41 24.5l18 7v4q-6 2 -17 7t-40 25.5t-50.5 47t-40 74.5t-18.5 106v211q0 70 -19 116t-51 65t-55.5 26.5t-50.5 7.5h-28v151q18 2 47 2q37 0 72.5 -5t86 -27.5t86 -58.5t61.5 -104.5 t26 -160.5v-172q0 -172 137 -219l37 -8v-176q-6 0 -18.5 -2.5t-42.5 -16.5t-53.5 -35.5t-41.5 -65.5t-18 -104v-196q0 -92 -26 -162t-61.5 -105.5t-86 -58t-86 -28t-72.5 -5.5l-47 4v152z" />
<glyph unicode="~" horiz-adv-x="1247" d="M137 418q0 174 75 260t210 86q74 0 131 -32t88 -68.5t77 -68.5t97 -32q72 0 104.5 57.5t32.5 135.5h162q0 -174 -74.5 -260t-212.5 -86q-72 0 -130 30.5t-88.5 68.5t-77 68.5t-97.5 30.5q-72 0 -103.5 -57t-31.5 -133h-162z" />
<glyph unicode="&#xa1;" horiz-adv-x="491" d="M141 836v200h207v-200h-207zM143 -410l13 1049h178l14 -1049h-205z" />
<glyph unicode="&#xa2;" horiz-adv-x="1134" d="M84 723q0 227 116.5 388t315.5 187v172h146v-172q133 -20 232 -103t153 -214l-181 -70q-90 203 -270 203q-145 0 -227 -109.5t-82 -281.5q0 -176 79.5 -282.5t229.5 -106.5q182 0 270 203l181 -72q-55 -125 -152.5 -213t-232.5 -102v-177h-146v177q-199 27 -315.5 187.5 t-116.5 385.5z" />
<glyph unicode="&#xa3;" horiz-adv-x="1257" d="M88 0v164h176v489h-139v144h139v278q0 170 126 282.5t319 112.5q92 0 177 -31.5t126 -62.5l39 -33l-113 -139q-102 84 -227 84q-111 0 -176.5 -63.5t-65.5 -157.5v-270h369v-144h-369v-485h522v233h178v-401h-1081z" />
<glyph unicode="&#xa5;" horiz-adv-x="1298" d="M86 1446h231l242 -451l88 -209h4q43 113 88 209l244 451h231l-340 -606h209v-129h-276l-55 -99v-75h331v-129h-331v-408h-205v408h-334v129h334v75l-55 99h-279v129h211z" />
<glyph unicode="&#xa7;" horiz-adv-x="890" d="M92 -23l90 138q86 -76 199 -76q94 0 155.5 56.5t61.5 158.5q0 51 -12 92l-135 770h161l144 -799q10 -41 10 -92q0 -156 -104.5 -254t-280.5 -98q-80 0 -151.5 26.5t-104.5 51.5zM125 1120q0 154 103.5 252t281.5 98q80 0 151.5 -26.5t104.5 -50.5l33 -27l-94 -131 q-82 70 -195 70q-96 0 -156.5 -53.5t-60.5 -153.5q0 -31 10 -82l139 -789h-161l-146 799q-10 39 -10 94z" />
<glyph unicode="&#xa8;" horiz-adv-x="1021" d="M217 1599v207h176v-207h-176zM627 1599v207h176v-207h-176z" />
<glyph unicode="&#xa9;" horiz-adv-x="1642" d="M92 723q0 311 212 529t515 218q305 0 519 -218t214 -529t-214 -529.5t-519 -218.5q-303 0 -515 218.5t-212 529.5zM242 723q0 -256 166.5 -432t410.5 -176q248 0 416 176t168 432t-168 432t-416 176q-244 0 -410.5 -176t-166.5 -432zM430 721q0 168 111.5 288.5 t292.5 120.5q195 0 311 -165l22 -37l-125 -68q-8 14 -23 36t-67.5 57.5t-111.5 35.5q-117 0 -185.5 -79t-68.5 -189q0 -115 67.5 -191.5t186.5 -76.5q59 0 110 32.5t72 63.5l20 33l125 -68q-4 -8 -12 -21.5t-38 -49t-64.5 -62.5t-94 -48.5t-124.5 -21.5q-180 0 -292 120 t-112 290z" />
<glyph unicode="&#xaa;" horiz-adv-x="868" d="M152 543v116h561v-116h-561zM152 981q0 225 387 225h20v13q0 129 -131 129q-41 0 -83 -14.5t-64 -28.5l-23 -15l-59 101q92 76 247 75q127 0 194 -66.5t67 -191.5v-411h-140v94h-4q-6 -12 -19.5 -30.5t-61.5 -48.5t-107 -30q-90 0 -156.5 53.5t-66.5 145.5zM301 991 q0 -37 27.5 -62.5t77.5 -25.5q66 0 108.5 56.5t42.5 125.5v17h-22q-234 0 -234 -111z" />
<glyph unicode="&#xab;" horiz-adv-x="1148" d="M88 578l336 421h199l-336 -421l336 -420h-199zM502 578l336 421h198l-336 -421l336 -420h-198z" />
<glyph unicode="&#xac;" horiz-adv-x="1216" d="M100 696v160h977v-547h-166v387h-811z" />
<glyph unicode="&#xad;" horiz-adv-x="974" d="M188 496v176h598v-176h-598z" />
<glyph unicode="&#xae;" horiz-adv-x="1642" d="M92 723q0 311 212 529t515 218q305 0 519 -218t214 -529t-214 -529.5t-519 -218.5q-303 0 -515 218.5t-212 529.5zM242 723q0 -256 166.5 -432t410.5 -176q248 0 416 176t168 432t-168 432t-416 176q-244 0 -410.5 -176t-166.5 -432zM569 340v772h297q111 0 177.5 -64.5 t66.5 -170.5q0 -82 -43 -136.5t-98 -68.5v-4q8 -8 26 -43l148 -285h-160l-143 299h-125v-299h-146zM715 745h123q57 0 91 35t34 97q0 59 -34 91.5t-91 32.5h-123v-256z" />
<glyph unicode="&#xaf;" horiz-adv-x="1021" d="M250 1606v145h522v-145h-522z" />
<glyph unicode="&#xb0;" horiz-adv-x="800" d="M90 1167q0 125 90 214t219 89t220.5 -89t91.5 -214t-91.5 -214t-220.5 -89t-219 88t-90 215zM250 1167.5q0 -63.5 43 -107.5t106.5 -44t108.5 44t45 107.5t-45 108.5t-108.5 45t-106.5 -45t-43 -108.5z" />
<glyph unicode="&#xb1;" horiz-adv-x="1255" d="M86 504v160h459v503h168v-503h456v-160h-456v-504h-168v504h-459zM119 -195h1018v-159h-1018v159z" />
<glyph unicode="&#xb2;" horiz-adv-x="763" d="M68 948q0 90 45 163t109.5 119t129 86t109.5 88t45 103q0 57 -41 95t-105 38q-98 -4 -174 -98l-100 92l11 17q7 10 35 34.5t57.5 44t79.5 36t104 16.5q129 0 209 -74t80 -188q0 -84 -43.5 -149.5t-106.5 -107.5l-126 -80q-62 -38 -108.5 -85t-50.5 -105h322v105h129v-232 h-602q-8 51 -8 82z" />
<glyph unicode="&#xb3;" horiz-adv-x="765" d="M63 981l87 104q8 -12 23 -28.5t69.5 -45t115.5 -28.5q68 0 119 45t51 111q0 68 -53 106.5t-127 38.5h-65l-33 78l194 235l45 41v7q-29 -6 -61 -7h-205v-108h-129v231h574v-98l-230 -266q104 -16 175 -80t71 -174q0 -121 -90 -209t-229 -88q-90 0 -166 33.5t-105 66.5z " />
<glyph unicode="&#xb4;" horiz-adv-x="1021" d="M295 1546l213 260h227l-254 -260h-186z" />
<glyph unicode="&#xb5;" horiz-adv-x="1218" d="M145 -410v1446h199v-618q0 -125 40 -191.5t153 -66.5q154 0 245.5 114.5t91.5 276.5v485h199v-1036h-192v141l4 72h-6q-4 -10 -12.5 -25.5t-40 -56.5t-71.5 -72.5t-108.5 -57.5t-148.5 -26q-131 2 -187 64h-4q14 -100 15 -160v-289h-177z" />
<glyph unicode="&#x3bc;" horiz-adv-x="1218" d="M145 -410v1446h199v-618q0 -125 40 -191.5t153 -66.5q154 0 245.5 114.5t91.5 276.5v485h199v-1036h-192v141l4 72h-6q-4 -10 -12.5 -25.5t-40 -56.5t-71.5 -72.5t-108.5 -57.5t-148.5 -26q-131 2 -187 64h-4q14 -100 15 -160v-289h-177z" />
<glyph unicode="&#xb6;" horiz-adv-x="1220" d="M72 970.5q0 200.5 142 338t341 137.5h557v-176h-401v-1372h-154v596q-199 0 -342 138t-143 338.5zM838 -102v1255h151v-1255h-151z" />
<glyph unicode="&#xb7;" horiz-adv-x="573" d="M182 485v217h209v-217h-209z" />
<glyph unicode="&#xb8;" horiz-adv-x="1021" d="M342 -322q39 -12 90 -12q104 0 105 66q0 70 -121 69h-35l65 250l105 -20v-17l-33 -129q70 -4 116 -46t46 -107q0 -88 -65.5 -132t-161.5 -44q-27 0 -54.5 3t-42.5 7l-14 4v108z" />
<glyph unicode="&#xb9;" horiz-adv-x="688" d="M63 1530l240 231h137v-768h209v-127h-573v127h211v506l6 64h-4q-10 -18 -33 -37l-98 -96z" />
<glyph unicode="&#xba;" horiz-adv-x="964" d="M131 1130q0 143 101.5 240.5t246.5 97.5q147 0 249.5 -96t102.5 -242q0 -150 -101 -247t-248.5 -97t-249 97t-101.5 247zM164 543v116h639v-116h-639zM279 1130q0 -92 58 -151t144 -59q84 0 142.5 59t58.5 151q0 90 -58.5 148.5t-142.5 58.5q-86 0 -144 -58.5t-58 -148.5 z" />
<glyph unicode="&#xbb;" horiz-adv-x="1146" d="M113 158l336 420l-336 421h198l336 -421l-336 -420h-198zM524 158l336 420l-336 421h199l336 -421l-336 -420h-199z" />
<glyph unicode="&#xbc;" horiz-adv-x="1959" d="M102 1214l240 232h137v-768h209v-127h-573v127h211v506l6 63h-4q-10 -18 -33 -37l-98 -96zM549 0l688 1446h154l-686 -1446h-156zM1182 223v99l411 573h166v-551h127v-121h-127v-223h-151v223h-426zM1339 344h269v299l8 92h-6q-18 -45 -43 -80l-228 -307v-4z" />
<glyph unicode="&#xbd;" horiz-adv-x="1927" d="M88 1214l240 232h137v-768h209v-127h-574v127h211v506l6 63h-4q-10 -18 -32 -37l-99 -96zM539 0l688 1446h153l-686 -1446h-155zM1227 82q0 90 45 162.5t109.5 119t129 86t109.5 88t45 103.5q0 57 -41 95t-104 38q-98 -4 -174 -98l-101 92l11 16q7 10 35 35t57.5 44.5 t80 35.5t103.5 16q129 0 209 -73.5t80 -188.5q0 -84 -43 -149.5t-107 -107.5l-126 -80q-62 -38 -108 -85t-51 -104h322v104h129v-231h-602q-8 51 -8 82z" />
<glyph unicode="&#xbe;" horiz-adv-x="1986" d="M94 666l86 104q8 -12 23.5 -28.5t70 -45t115.5 -28.5q68 0 119 45t51 110q0 68 -53 107t-127 39h-66l-32 78l194 235l45 41v6q-29 -6 -61 -6h-205v-109h-129v232h573v-98l-229 -267q104 -16 175 -79.5t71 -174.5q0 -121 -90 -209t-230 -88q-90 0 -165.5 34t-106.5 67z M569 0l688 1446h154l-686 -1446h-156zM1204 223v99l412 573h166v-551h127v-121h-127v-223h-152v223h-426zM1362 344h268v299l8 92h-6q-18 -45 -43 -80l-227 -307v-4z" />
<glyph unicode="&#xbf;" horiz-adv-x="952" d="M98 -57q0 94 37 168.5t90.5 125t107.5 96.5t91 104.5t37 125.5v76h192v-88q0 -86 -35.5 -157.5t-87.5 -120.5l-102 -93q-51 -45 -87 -101t-36 -120q0 -86 67.5 -145.5t168.5 -59.5q57 0 115.5 22.5t88.5 43.5l29 22l109 -141q-6 -6 -16.5 -14.5t-45.5 -31t-73.5 -39.5 t-98 -31.5t-123.5 -14.5q-180 0 -304 103.5t-124 269.5zM455 836v200h204v-200h-204z" />
<glyph unicode="&#xc0;" horiz-adv-x="1480" d="M25 0v160h139l461 1286h231l461 -1286h139v-160h-502v160h154l-113 321h-512l-112 -321h155v-160h-501zM420 1806h229l211 -260h-186zM535 645h409l-176 502q-8 27 -14 54.5l-9 41.5l-2 14h-6q-6 -51 -24 -110z" />
<glyph unicode="&#xc1;" horiz-adv-x="1476" d="M23 0v160h139l461 1286h231l461 -1286h139v-160h-502v160h154l-113 321h-512l-112 -321h155v-160h-501zM532 645h410l-176 502q-8 27 -14.5 54.5t-8.5 41.5l-2 14h-6q-6 -51 -24 -110zM612 1546l213 260h228l-254 -260h-187z" />
<glyph unicode="&#xc2;" horiz-adv-x="1476" d="M23 0v160h139l461 1286h231l461 -1286h139v-160h-502v160h154l-113 321h-512l-112 -321h155v-160h-501zM449 1546l180 260h215l180 -260h-178l-109 164h-4l-106 -164h-178zM532 645h410l-176 502q-8 27 -14.5 54.5t-8.5 41.5l-2 14h-6q-6 -51 -24 -110z" />
<glyph unicode="&#xc3;" horiz-adv-x="1476" d="M23 0v160h139l461 1286h231l461 -1286h139v-160h-502v160h154l-113 321h-512l-112 -321h155v-160h-501zM389 1548q0 260 209 260q49 0 90 -21.5t63.5 -47t51 -47t55.5 -21.5q82 0 82 131h147q0 -260 -208 -260q-49 0 -90 21.5t-64 47t-51.5 47t-55.5 21.5q-82 0 -81 -131 h-148zM532 645h410l-176 502q-8 27 -14.5 54.5t-8.5 41.5l-2 14h-6q-6 -51 -24 -110z" />
<glyph unicode="&#xc4;" horiz-adv-x="1476" d="M23 0v160h139l461 1286h231l461 -1286h139v-160h-502v160h154l-113 321h-512l-112 -321h155v-160h-501zM444 1599v207h177v-207h-177zM532 645h410l-176 502q-8 27 -14.5 54.5t-8.5 41.5l-2 14h-6q-6 -51 -24 -110zM854 1599v207h176v-207h-176z" />
<glyph unicode="&#xc5;" horiz-adv-x="1476" d="M23 0v160h139l461 1286h231l461 -1286h139v-160h-502v160h154l-113 321h-512l-112 -321h155v-160h-501zM532 645h410l-176 502q-8 27 -14.5 54.5t-8.5 41.5l-2 14h-6q-6 -51 -24 -110zM549 1677q0 78 55 124t133 46t135.5 -47t57.5 -123q0 -74 -57.5 -119t-135.5 -45 t-133 45t-55 119zM664 1677q0 -33 20.5 -53t52.5 -20q35 0 55.5 20.5t20.5 52.5q0 37 -20.5 58.5t-55.5 21.5q-33 0 -53 -21.5t-20 -58.5z" />
<glyph unicode="&#xc6;" horiz-adv-x="1927" d="M25 0v160h129l464 1128h-157v158h1327v-336h-170v168h-485v-465h507v-168h-507v-477h520v170h170v-338h-1071v160h176v487h-369l-199 -487h156v-160h-491zM621 807h307v471h-115z" />
<glyph unicode="&#xc7;" horiz-adv-x="1523" d="M100 731q0 317 212 528t528 211q74 0 160.5 -14t178 -44t152 -90t60.5 -138v-176h-191v112q0 59 -62.5 100.5t-138 57.5t-151.5 16q-233 0 -385 -155.5t-152 -399.5q0 -256 156 -420.5t393 -164.5q66 0 141.5 13t147.5 54t72 103v112h190v-176q0 -72 -54 -129t-140.5 -89 t-173.5 -48.5t-171 -18.5l-20 -90q68 -4 115 -47t47 -106q0 -88 -66.5 -132t-161.5 -44l-112 14v108q39 -12 92 -12q102 0 102 66q0 70 -118 69h-37l47 179q-291 31 -475.5 242.5t-184.5 508.5z" />
<glyph unicode="&#xc8;" horiz-adv-x="1294" d="M109 0v160h180v1128h-180v158h1046v-336h-178v168h-483v-465h512v-168h-512v-477h518v174h178v-342h-1081zM348 1806h230l210 -260h-186z" />
<glyph unicode="&#xc9;" horiz-adv-x="1294" d="M109 0v160h180v1128h-180v158h1046v-336h-178v168h-483v-465h512v-168h-512v-477h518v174h178v-342h-1081zM545 1546l213 260h227l-254 -260h-186z" />
<glyph unicode="&#xca;" horiz-adv-x="1294" d="M109 0v160h180v1128h-180v158h1046v-336h-178v168h-483v-465h512v-168h-512v-477h518v174h178v-342h-1081zM381 1546l180 260h215l180 -260h-178l-108 164h-4l-107 -164h-178z" />
<glyph unicode="&#xcb;" horiz-adv-x="1294" d="M109 0v160h180v1128h-180v158h1046v-336h-178v168h-483v-465h512v-168h-512v-477h518v174h178v-342h-1081zM375 1599v207h176v-207h-176zM784 1599v207h177v-207h-177z" />
<glyph unicode="&#xcc;" horiz-adv-x="782" d="M74 1806h229l211 -260h-186zM109 0v160h180v1128h-180v158h567v-158h-182v-1128h182v-160h-567z" />
<glyph unicode="&#xcd;" horiz-adv-x="782" d="M109 0v160h180v1128h-180v158h567v-158h-182v-1128h182v-160h-567zM268 1546l213 260h228l-254 -260h-187z" />
<glyph unicode="&#xce;" horiz-adv-x="782" d="M104 1546l181 260h215l180 -260h-178l-109 164h-4l-106 -164h-179zM109 0v160h180v1128h-180v158h567v-158h-182v-1128h182v-160h-567z" />
<glyph unicode="&#xcf;" horiz-adv-x="782" d="M98 1599v207h176v-207h-176zM109 0v160h180v1128h-180v158h567v-158h-182v-1128h182v-160h-567zM508 1599v207h176v-207h-176z" />
<glyph unicode="&#xd0;" horiz-adv-x="1611" d="M109 0v160h180v479h-154v168h154v481h-180v158h663q336 0 534.5 -191.5t198.5 -529.5q0 -340 -198.5 -532.5t-534.5 -192.5h-663zM494 168h264q246 0 390 145.5t144 411.5q0 264 -145.5 408.5t-388.5 144.5h-264v-471h317v-168h-317v-471z" />
<glyph unicode="&#xd1;" horiz-adv-x="1716" d="M109 0v160h180v1128h-180v158h383l710 -1036l49 -105h6q-10 72 -10 117v866h-184v158h571v-158h-182v-1288h-201l-710 1036q-12 18 -24.5 44t-18.5 42l-6 19h-7l9 -117v-864h186v-160h-571zM520 1548q0 260 209 260q49 0 90 -21.5t63.5 -47t51.5 -47t55 -21.5 q82 0 82 131h148q0 -260 -209 -260q-49 0 -90 21.5t-63.5 47t-51.5 47t-55 21.5q-82 0 -82 -131h-148z" />
<glyph unicode="&#xd2;" horiz-adv-x="1683" d="M98 733q0 311 214 524t530 213q313 0 528 -213t215 -524q0 -319 -215 -538.5t-528 -219.5q-315 0 -529.5 219.5t-214.5 538.5zM309 733q0 -244 154.5 -409.5t378.5 -165.5q221 0 375.5 165.5t154.5 409.5q0 236 -154.5 396.5t-375.5 160.5q-223 0 -378 -160.5 t-155 -396.5zM522 1806h230l211 -260h-187z" />
<glyph unicode="&#xd3;" horiz-adv-x="1683" d="M98 733q0 311 214 524t530 213q313 0 528 -213t215 -524q0 -319 -215 -538.5t-528 -219.5q-315 0 -529.5 219.5t-214.5 538.5zM309 733q0 -244 154.5 -409.5t378.5 -165.5q221 0 375.5 165.5t154.5 409.5q0 236 -154.5 396.5t-375.5 160.5q-223 0 -378 -160.5 t-155 -396.5zM717 1546l213 260h227l-254 -260h-186z" />
<glyph unicode="&#xd4;" horiz-adv-x="1683" d="M98 733q0 311 214 524t530 213q313 0 528 -213t215 -524q0 -319 -215 -538.5t-528 -219.5q-315 0 -529.5 219.5t-214.5 538.5zM309 733q0 -244 154.5 -409.5t378.5 -165.5q221 0 375.5 165.5t154.5 409.5q0 236 -154.5 396.5t-375.5 160.5q-223 0 -378 -160.5 t-155 -396.5zM553 1546l180 260h215l180 -260h-178l-108 164h-4l-107 -164h-178z" />
<glyph unicode="&#xd5;" horiz-adv-x="1683" d="M98 733q0 311 214 524t530 213q313 0 528 -213t215 -524q0 -319 -215 -538.5t-528 -219.5q-315 0 -529.5 219.5t-214.5 538.5zM309 733q0 -244 154.5 -409.5t378.5 -165.5q221 0 375.5 165.5t154.5 409.5q0 236 -154.5 396.5t-375.5 160.5q-223 0 -378 -160.5 t-155 -396.5zM494 1548q0 260 208 260q49 0 90.5 -21.5t64 -47t51 -47t55.5 -21.5q82 0 81 131h148q0 -260 -209 -260q-49 0 -90 21.5t-63.5 47t-51 47t-55.5 21.5q-82 0 -82 -131h-147z" />
<glyph unicode="&#xd6;" horiz-adv-x="1683" d="M98 733q0 311 214 524t530 213q313 0 528 -213t215 -524q0 -319 -215 -538.5t-528 -219.5q-315 0 -529.5 219.5t-214.5 538.5zM309 733q0 -244 154.5 -409.5t378.5 -165.5q221 0 375.5 165.5t154.5 409.5q0 236 -154.5 396.5t-375.5 160.5q-223 0 -378 -160.5 t-155 -396.5zM549 1599v207h176v-207h-176zM958 1599v207h177v-207h-177z" />
<glyph unicode="&#xd7;" horiz-adv-x="1255" d="M94 113l424 471l-424 471l113 112l420 -467l420 467l112 -112l-426 -471l426 -471l-112 -113l-420 465l-420 -465z" />
<glyph unicode="&#xd8;" horiz-adv-x="1681" d="M98 733q0 311 215 524t527 213q209 0 381 -102l92 131l100 -69l-92 -130q123 -102 192.5 -249.5t69.5 -317.5q0 -319 -215 -538.5t-528 -219.5q-215 0 -391 111l-99 -137l-100 69l100 140q-252 225 -252 575zM307 733q0 -248 162 -409l637 886q-121 74 -266 74 q-223 0 -378 -157.5t-155 -393.5zM561 244q123 -82 279 -82q223 0 378.5 163.5t155.5 407.5q0 248 -170 404z" />
<glyph unicode="&#xd9;" horiz-adv-x="1632" d="M63 1288v158h570v-158h-182v-747q0 -147 55 -236q92 -147 311 -147t311 151q55 94 56 234v745h-183v158h568v-158h-180v-749q0 -209 -101 -353q-72 -102 -196.5 -156.5t-274.5 -54.5q-154 0 -277.5 55.5t-197.5 155.5q-96 131 -96 353v749h-183zM498 1806h229l211 -260 h-186z" />
<glyph unicode="&#xda;" horiz-adv-x="1632" d="M63 1288v158h570v-158h-182v-747q0 -147 55 -236q92 -147 311 -147t311 151q55 94 56 234v745h-183v158h568v-158h-180v-749q0 -209 -101 -353q-72 -102 -196.5 -156.5t-274.5 -54.5q-154 0 -277.5 55.5t-197.5 155.5q-96 131 -96 353v749h-183zM692 1546l213 260h228 l-254 -260h-187z" />
<glyph unicode="&#xdb;" horiz-adv-x="1632" d="M63 1288v158h570v-158h-182v-747q0 -147 55 -236q92 -147 311 -147t311 151q55 94 56 234v745h-183v158h568v-158h-180v-749q0 -209 -101 -353q-72 -102 -196.5 -156.5t-274.5 -54.5q-154 0 -277.5 55.5t-197.5 155.5q-96 131 -96 353v749h-183zM528 1546l181 260h215 l180 -260h-178l-109 164h-4l-106 -164h-179z" />
<glyph unicode="&#xdc;" horiz-adv-x="1632" d="M63 1288v158h570v-158h-182v-747q0 -147 55 -236q92 -147 311 -147t311 151q55 94 56 234v745h-183v158h568v-158h-180v-749q0 -209 -101 -353q-72 -102 -196.5 -156.5t-274.5 -54.5q-154 0 -277.5 55.5t-197.5 155.5q-96 131 -96 353v749h-183zM524 1599v207h176v-207 h-176zM934 1599v207h176v-207h-176z" />
<glyph unicode="&#xdd;" horiz-adv-x="1331" d="M20 1288v158h498v-158h-151l268 -454l29 -62h4q12 31 30 62l269 454h-150v158h494v-158h-137l-406 -676v-452h182v-160h-569v160h182v452l-405 676h-138zM545 1546l213 260h227l-254 -260h-186z" />
<glyph unicode="&#xde;" horiz-adv-x="1331" d="M109 0v160h180v1128h-180v158h567v-158h-184v-147h342q199 0 318.5 -105.5t119.5 -287.5q0 -184 -120 -294t-321 -110h-339v-184h184v-160h-567zM492 504h299q131 0 202.5 63.5t71.5 180.5q0 115 -70.5 174t-201.5 59h-301v-477z" />
<glyph unicode="&#xdf;" horiz-adv-x="1273" d="M66 0v154h163v931q0 180 131.5 282.5t311.5 102.5q168 0 278.5 -95t110.5 -234q0 -68 -33 -126.5t-70.5 -93t-70.5 -77.5t-33 -84q0 -35 38 -72t91 -73.5t107.5 -78.5t92.5 -104.5t38 -134.5q0 -150 -101.5 -230.5t-249.5 -80.5q-186 0 -288 59v176q115 -63 266 -63 q74 0 123 36.5t49 110.5q0 55 -57.5 109.5t-126 94.5t-126 105.5t-57.5 139.5q0 57 32 110.5t71 89t70.5 86t31.5 99.5q0 66 -51 112.5t-143 46.5q-96 0 -167 -59t-71 -168v-1071h-360z" />
<glyph unicode="&#xe0;" d="M68 289q0 78 31.5 138t88 97t117 60.5t136 35t125.5 14.5t106 3h65v39q0 221 -221 221q-74 0 -147.5 -24.5t-110.5 -49.5l-39 -26l-80 141q6 4 17.5 13.5t51.5 29.5t82 36.5t108.5 30t133.5 13.5q199 0 301.5 -101.5t102.5 -297.5v-463q0 -45 45 -45h104v-154h-206 q-129 0 -129 113v14l8 68h-4l-12 -24q-7 -15 -36.5 -53t-64.5 -66.5t-97.5 -52.5t-131.5 -24q-141 0 -242.5 82t-101.5 232zM219 1446h230l210 -260h-186zM268 305q0 -74 50.5 -125t136.5 -51q125 0 204.5 104.5t79.5 231.5v43h-51q-420 0 -420 -203z" />
<glyph unicode="&#xe1;" d="M68 289q0 78 31.5 138t88 97t117 60.5t136 35t125.5 14.5t106 3h65v39q0 221 -221 221q-74 0 -147.5 -24.5t-110.5 -49.5l-39 -26l-80 141q6 4 17.5 13.5t51.5 29.5t82 36.5t108.5 30t133.5 13.5q199 0 301.5 -101.5t102.5 -297.5v-463q0 -45 45 -45h104v-154h-206 q-129 0 -129 113v14l8 68h-4l-12 -24q-7 -15 -36.5 -53t-64.5 -66.5t-97.5 -52.5t-131.5 -24q-141 0 -242.5 82t-101.5 232zM268 305q0 -74 50.5 -125t136.5 -51q125 0 204.5 104.5t79.5 231.5v43h-51q-420 0 -420 -203zM414 1186l213 260h227l-254 -260h-186z" />
<glyph unicode="&#xe2;" d="M68 289q0 78 31.5 138t88 97t117 60.5t136 35t125.5 14.5t106 3h65v39q0 221 -221 221q-74 0 -147.5 -24.5t-110.5 -49.5l-39 -26l-80 141q6 4 17.5 13.5t51.5 29.5t82 36.5t108.5 30t133.5 13.5q199 0 301.5 -101.5t102.5 -297.5v-463q0 -45 45 -45h104v-154h-206 q-129 0 -129 113v14l8 68h-4l-12 -24q-7 -15 -36.5 -53t-64.5 -66.5t-97.5 -52.5t-131.5 -24q-141 0 -242.5 82t-101.5 232zM250 1186l180 260h215l180 -260h-178l-108 164h-4l-107 -164h-178zM268 305q0 -74 50.5 -125t136.5 -51q125 0 204.5 104.5t79.5 231.5v43h-51 q-420 0 -420 -203z" />
<glyph unicode="&#xe3;" d="M68 289q0 78 31.5 138t88 97t117 60.5t136 35t125.5 14.5t106 3h65v39q0 221 -221 221q-74 0 -147.5 -24.5t-110.5 -49.5l-39 -26l-80 141q6 4 17.5 13.5t51.5 29.5t82 36.5t108.5 30t133.5 13.5q199 0 301.5 -101.5t102.5 -297.5v-463q0 -45 45 -45h104v-154h-206 q-129 0 -129 113v14l8 68h-4l-12 -24q-7 -15 -36.5 -53t-64.5 -66.5t-97.5 -52.5t-131.5 -24q-141 0 -242.5 82t-101.5 232zM190 1188q0 260 209 260q49 0 90 -21.5t63.5 -47t51.5 -47t55 -21.5q82 0 82 131h148q0 -260 -209 -260q-49 0 -90 21.5t-63.5 47t-51.5 47 t-55 21.5q-82 0 -82 -131h-148zM268 305q0 -74 50.5 -125t136.5 -51q125 0 204.5 104.5t79.5 231.5v43h-51q-420 0 -420 -203z" />
<glyph unicode="&#xe4;" d="M68 289q0 78 31.5 138t88 97t117 60.5t136 35t125.5 14.5t106 3h65v39q0 221 -221 221q-74 0 -147.5 -24.5t-110.5 -49.5l-39 -26l-80 141q6 4 17.5 13.5t51.5 29.5t82 36.5t108.5 30t133.5 13.5q199 0 301.5 -101.5t102.5 -297.5v-463q0 -45 45 -45h104v-154h-206 q-129 0 -129 113v14l8 68h-4l-12 -24q-7 -15 -36.5 -53t-64.5 -66.5t-97.5 -52.5t-131.5 -24q-141 0 -242.5 82t-101.5 232zM246 1239v207h176v-207h-176zM268 305q0 -74 50.5 -125t136.5 -51q125 0 204.5 104.5t79.5 231.5v43h-51q-420 0 -420 -203zM655 1239v207h176v-207 h-176z" />
<glyph unicode="&#xe5;" d="M68 289q0 78 31.5 138t88 97t117 60.5t136 35t125.5 14.5t106 3h65v39q0 221 -221 221q-74 0 -147.5 -24.5t-110.5 -49.5l-39 -26l-80 141q6 4 17.5 13.5t51.5 29.5t82 36.5t108.5 30t133.5 13.5q199 0 301.5 -101.5t102.5 -297.5v-463q0 -45 45 -45h104v-154h-206 q-129 0 -129 113v14l8 68h-4l-12 -24q-7 -15 -36.5 -53t-64.5 -66.5t-97.5 -52.5t-131.5 -24q-141 0 -242.5 82t-101.5 232zM268 305q0 -74 50.5 -125t136.5 -51q125 0 204.5 104.5t79.5 231.5v43h-51q-420 0 -420 -203zM350 1317q0 78 55.5 124t133 46t135 -47t57.5 -123 q0 -74 -57.5 -119t-135 -45t-133 45t-55.5 119zM465 1317q0 -33 20.5 -53.5t53.5 -20.5q35 0 55 20.5t20 53.5q0 37 -20.5 58.5t-54.5 21.5q-33 0 -53.5 -21.5t-20.5 -58.5z" />
<glyph unicode="&#xe6;" horiz-adv-x="1767" d="M70 289q0 78 28.5 138t84 96t112.5 58.5t135 33t131 13.5t123 3h55v35q0 231 -227 231q-74 0 -147.5 -24.5t-110.5 -49.5l-37 -26l-80 141q16 14 48 34.5t134.5 54.5t208.5 34q254 0 336 -182h4q127 182 369 182q207 0 325.5 -137.5t118.5 -345.5l-6 -76h-743 q8 -172 104.5 -266.5t241.5 -94.5q78 0 154.5 30t113.5 60l37 31l82 -139q-16 -16 -49 -41t-137.5 -66t-212.5 -41q-154 0 -268.5 69t-178.5 192h-4q-10 -29 -32.5 -65t-66.5 -84t-121 -80t-169 -32q-150 0 -253 84.5t-103 229.5zM268 299q0 -70 51.5 -119t141.5 -49 q121 0 200.5 104.5t79.5 229.5v37h-96q-377 0 -377 -203zM940 631h541q-4 127 -76 199.5t-172 72.5q-115 0 -194 -70.5t-99 -201.5z" />
<glyph unicode="&#xe7;" horiz-adv-x="1132" d="M82 516q0 236 157.5 390.5t391.5 154.5q63 0 128.5 -12.5t130 -38t105.5 -73.5t41 -112v-127h-176v72q0 55 -71.5 87t-151.5 32q-158 0 -255 -101.5t-97 -267.5q0 -172 104.5 -272.5t259.5 -100.5q80 0 161 33t103 49l68 52l76 -146q-33 -31 -77 -60.5t-136 -63.5 t-187 -36l-20 -90q68 -4 115 -47t47 -106q0 -88 -66.5 -132t-161.5 -44l-112 14v108q41 -12 92 -12q102 0 102 66q0 70 -118 69h-37l49 183q-201 29 -333 172t-132 360z" />
<glyph unicode="&#xe8;" d="M84 518q0 244 146.5 393.5t371.5 149.5q213 0 331 -137.5t118 -348.5l-7 -75h-757q8 -166 110.5 -259.5t247.5 -93.5q80 0 158 29t115 57l36 31l82 -145q-18 -16 -50 -40t-137.5 -64t-215.5 -40q-242 0 -395.5 155t-153.5 388zM285 1446h229l211 -260h-186zM295 627h551 q-4 131 -75 203.5t-173 72.5q-115 0 -199 -73.5t-104 -202.5z" />
<glyph unicode="&#xe9;" d="M84 518q0 244 146.5 393.5t371.5 149.5q213 0 331 -137.5t118 -348.5l-7 -75h-757q8 -166 110.5 -259.5t247.5 -93.5q80 0 158 29t115 57l36 31l82 -145q-18 -16 -50 -40t-137.5 -64t-215.5 -40q-242 0 -395.5 155t-153.5 388zM295 627h551q-4 131 -75 203.5t-173 72.5 q-115 0 -199 -73.5t-104 -202.5zM479 1186l213 260h228l-254 -260h-187z" />
<glyph unicode="&#xea;" d="M84 518q0 244 146.5 393.5t371.5 149.5q213 0 331 -137.5t118 -348.5l-7 -75h-757q8 -166 110.5 -259.5t247.5 -93.5q80 0 158 29t115 57l36 31l82 -145q-18 -16 -50 -40t-137.5 -64t-215.5 -40q-242 0 -395.5 155t-153.5 388zM295 627h551q-4 131 -75 203.5t-173 72.5 q-115 0 -199 -73.5t-104 -202.5zM315 1186l181 260h215l180 -260h-178l-109 164h-4l-106 -164h-179z" />
<glyph unicode="&#xeb;" d="M84 518q0 244 146.5 393.5t371.5 149.5q213 0 331 -137.5t118 -348.5l-7 -75h-757q8 -166 110.5 -259.5t247.5 -93.5q80 0 158 29t115 57l36 31l82 -145q-18 -16 -50 -40t-137.5 -64t-215.5 -40q-242 0 -395.5 155t-153.5 388zM295 627h551q-4 131 -75 203.5t-173 72.5 q-115 0 -199 -73.5t-104 -202.5zM311 1239v207h176v-207h-176zM721 1239v207h176v-207h-176z" />
<glyph unicode="&#xec;" horiz-adv-x="661" d="M27 1446h229l211 -260h-186zM92 883v153h354v-882h150v-154h-500v154h152v729h-156z" />
<glyph unicode="&#xed;" horiz-adv-x="661" d="M92 883v153h354v-882h150v-154h-500v154h152v729h-156zM221 1186l213 260h228l-254 -260h-187z" />
<glyph unicode="&#xee;" horiz-adv-x="661" d="M57 1186l181 260h215l180 -260h-178l-109 164h-4l-106 -164h-179zM92 883v153h354v-882h150v-154h-500v154h152v729h-156z" />
<glyph unicode="&#xef;" horiz-adv-x="661" d="M72 1239v207h176v-207h-176zM92 883v153h354v-882h150v-154h-500v154h152v729h-156zM426 1239v207h176v-207h-176z" />
<glyph unicode="&#xf0;" horiz-adv-x="1208" d="M88 481q0 195 129 334t354 139q158 -4 252 -86h4q-63 170 -227 279l-364 -160l-21 107l264 118q-131 66 -274 99l55 162q248 -57 434 -170l273 122l20 -108l-194 -88q299 -246 299 -666q0 -109 -30 -209t-89.5 -187t-162.5 -139.5t-237 -52.5q-223 0 -354 150.5 t-131 355.5zM289 477q0 -135 76.5 -232.5t212.5 -97.5q80 0 142 34t98 91.5t54.5 122t18.5 133.5q0 117 -79 192t-210 75q-150 0 -231.5 -93.5t-81.5 -224.5z" />
<glyph unicode="&#xf1;" horiz-adv-x="1411" d="M88 883v153h234q131 0 131 -114v-54l-7 -59h5q10 27 36.5 63.5t72.5 81.5t124 76t170 31q176 0 260 -98.5t84 -298.5v-510h164v-154h-363v618q0 125 -39.5 193t-154.5 68q-152 0 -249 -118t-97 -280v-327h164v-154h-525v154h162v684q0 45 -45 45h-127zM397 1188 q0 260 209 260q49 0 90 -21.5t63.5 -47t51.5 -47t55 -21.5q82 0 82 131h148q0 -260 -209 -260q-49 0 -90 21.5t-63.5 47t-51.5 47t-55 21.5q-82 0 -82 -131h-148z" />
<glyph unicode="&#xf2;" horiz-adv-x="1282" d="M82 520.5q0 233.5 162 387t397.5 153.5t397 -153.5t161.5 -387t-163 -389.5t-396 -156t-396 156t-163 389.5zM285 520q0 -162 103.5 -267.5t252.5 -105.5q147 0 251.5 106.5t104.5 266.5t-104.5 264.5t-251.5 104.5q-150 0 -253 -104.5t-103 -264.5zM322 1446h229 l211 -260h-187z" />
<glyph unicode="&#xf3;" horiz-adv-x="1282" d="M82 520.5q0 233.5 162 387t397.5 153.5t397 -153.5t161.5 -387t-163 -389.5t-396 -156t-396 156t-163 389.5zM285 520q0 -162 103.5 -267.5t252.5 -105.5q147 0 251.5 106.5t104.5 266.5t-104.5 264.5t-251.5 104.5q-150 0 -253 -104.5t-103 -264.5zM518 1186l213 260 h227l-253 -260h-187z" />
<glyph unicode="&#xf4;" horiz-adv-x="1282" d="M82 520.5q0 233.5 162 387t397.5 153.5t397 -153.5t161.5 -387t-163 -389.5t-396 -156t-396 156t-163 389.5zM285 520q0 -162 103.5 -267.5t252.5 -105.5q147 0 251.5 106.5t104.5 266.5t-104.5 264.5t-251.5 104.5q-150 0 -253 -104.5t-103 -264.5zM354 1186l181 260 h215l180 -260h-178l-109 164h-4l-107 -164h-178z" />
<glyph unicode="&#xf5;" horiz-adv-x="1282" d="M82 520.5q0 233.5 162 387t397.5 153.5t397 -153.5t161.5 -387t-163 -389.5t-396 -156t-396 156t-163 389.5zM285 520q0 -162 103.5 -267.5t252.5 -105.5q147 0 251.5 106.5t104.5 266.5t-104.5 264.5t-251.5 104.5q-150 0 -253 -104.5t-103 -264.5zM293 1188 q0 260 209 260q49 0 90 -21.5t63.5 -47t51 -47t55.5 -21.5q82 0 82 131h147q0 -260 -209 -260q-49 0 -90 21.5t-63.5 47t-51 47t-55.5 21.5q-82 0 -82 -131h-147z" />
<glyph unicode="&#xf6;" horiz-adv-x="1282" d="M82 520.5q0 233.5 162 387t397.5 153.5t397 -153.5t161.5 -387t-163 -389.5t-396 -156t-396 156t-163 389.5zM285 520q0 -162 103.5 -267.5t252.5 -105.5q147 0 251.5 106.5t104.5 266.5t-104.5 264.5t-251.5 104.5q-150 0 -253 -104.5t-103 -264.5zM348 1239v207h176 v-207h-176zM758 1239v207h176v-207h-176z" />
<glyph unicode="&#xf7;" horiz-adv-x="1255" d="M111 504v160h1034v-160h-1034zM530 90v186h193v-186h-193zM530 891v186h193v-186h-193z" />
<glyph unicode="&#xf8;" horiz-adv-x="1282" d="M84 520q0 233 162 387t395 154q150 0 281 -72l82 113l88 -62l-80 -110q188 -162 188 -410q0 -233 -163 -389t-396 -156q-141 0 -266 66l-80 -115l-88 64l76 108q-92 74 -145.5 183.5t-53.5 238.5zM285 520q0 -152 110 -266l422 588q-90 47 -176 47q-147 0 -251.5 -104.5 t-104.5 -264.5zM481 188q78 -41 160 -41q150 0 253 105.5t103 267.5q0 143 -98 252z" />
<glyph unicode="&#xf9;" horiz-adv-x="1361" d="M41 883v153h373v-622q0 -125 40 -191.5t154 -66.5q150 0 243 120.5t93 282.5v324h-174v153h373v-839q0 -45 45 -45h108v-152h-215q-131 0 -131 115v45l4 61h-4q-10 -27 -35.5 -62.5t-71.5 -79.5t-122 -74t-166 -30q-340 0 -340 398v510h-174zM334 1446h229l211 -260h-186 z" />
<glyph unicode="&#xfa;" horiz-adv-x="1361" d="M41 883v153h373v-622q0 -125 40 -191.5t154 -66.5q150 0 243 120.5t93 282.5v324h-174v153h373v-839q0 -45 45 -45h108v-152h-215q-131 0 -131 115v45l4 61h-4q-10 -27 -35.5 -62.5t-71.5 -79.5t-122 -74t-166 -30q-340 0 -340 398v510h-174zM530 1186l213 260h228 l-254 -260h-187z" />
<glyph unicode="&#xfb;" horiz-adv-x="1361" d="M41 883v153h373v-622q0 -125 40 -191.5t154 -66.5q150 0 243 120.5t93 282.5v324h-174v153h373v-839q0 -45 45 -45h108v-152h-215q-131 0 -131 115v45l4 61h-4q-10 -27 -35.5 -62.5t-71.5 -79.5t-122 -74t-166 -30q-340 0 -340 398v510h-174zM365 1186l180 260h215 l180 -260h-178l-109 164h-4l-106 -164h-178z" />
<glyph unicode="&#xfc;" horiz-adv-x="1361" d="M41 883v153h373v-622q0 -125 40 -191.5t154 -66.5q150 0 243 120.5t93 282.5v324h-174v153h373v-839q0 -45 45 -45h108v-152h-215q-131 0 -131 115v45l4 61h-4q-10 -27 -35.5 -62.5t-71.5 -79.5t-122 -74t-166 -30q-340 0 -340 398v510h-174zM360 1239v207h177v-207h-177 zM770 1239v207h176v-207h-176z" />
<glyph unicode="&#xfd;" horiz-adv-x="1208" d="M18 883v153h474v-153h-138l232 -617q14 -45 18 -90h6q8 45 25 90l229 617h-133v153h459v-153h-129l-410 -1047q-51 -129 -146 -197.5t-218 -68.5q-131 0 -224 65l68 150q59 -49 148 -49q129 0 190 143l43 103l-362 901h-132zM492 1186l213 260h227l-254 -260h-186z" />
<glyph unicode="&#xfe;" horiz-adv-x="1245" d="M6 1292v154h367v-475l-4 -86h4q4 6 10 18t33.5 43t61.5 53.5t93.5 42t128.5 19.5q209 0 334 -151.5t125 -391t-130 -391.5t-335 -152q-201 0 -305 146l-16 29h-4q4 -37 4 -91v-315h162v-154h-525v154h164v1548h-168zM367 516q0 -162 80.5 -265.5t216.5 -103.5 q127 0 210.5 102.5t83.5 268.5q0 164 -79.5 267.5t-210.5 103.5t-216 -92.5t-85 -280.5z" />
<glyph unicode="&#xff;" horiz-adv-x="1208" d="M18 883v153h474v-153h-138l232 -617q14 -45 18 -90h6q8 45 25 90l229 617h-133v153h459v-153h-129l-410 -1047q-51 -129 -146 -197.5t-218 -68.5q-131 0 -224 65l68 150q59 -49 148 -49q129 0 190 143l43 103l-362 901h-132zM322 1239v207h176v-207h-176zM731 1239v207 h176v-207h-176z" />
<glyph unicode="&#x152;" horiz-adv-x="1994" d="M100 725q0 313 215 526t535 213q53 0 135 -9t115 -9h755v-336h-169v168h-486v-467h506v-166h-506v-477h520v170h170v-338h-788q-33 0 -116 -9t-136 -9q-319 0 -534.5 214t-215.5 529zM309 725q0 -244 151.5 -407.5t389.5 -163.5l145 16v1108q-63 14 -145 14 q-238 0 -389.5 -162.5t-151.5 -404.5z" />
<glyph unicode="&#x153;" horiz-adv-x="2048" d="M82 516q0 240 159.5 392.5t391.5 152.5q303 0 450 -246h4q131 246 426 246q211 0 330 -137.5t119 -348.5l-6 -77h-756q12 -168 113.5 -261.5t242.5 -93.5q80 0 157 30t114 60l37 29l82 -139q-18 -16 -50 -41t-137.5 -66t-214.5 -41q-313 0 -452 252h-5 q-147 -252 -452 -252q-233 0 -393 150.5t-160 390.5zM285 516q0 -164 102 -266.5t251.5 -102.5t253 103.5t103.5 271.5q0 162 -104.5 264.5t-251.5 102.5t-250.5 -103.5t-103.5 -269.5zM1206 627h553q-4 129 -74.5 202.5t-173.5 73.5q-117 0 -201 -73.5t-104 -202.5z" />
<glyph unicode="&#x178;" horiz-adv-x="1331" d="M20 1288v158h498v-158h-151l268 -454l29 -62h4q12 31 30 62l269 454h-150v158h494v-158h-137l-406 -676v-452h182v-160h-569v160h182v452l-405 676h-138zM375 1599v207h176v-207h-176zM784 1599v207h177v-207h-177z" />
<glyph unicode="&#x2c6;" horiz-adv-x="1021" d="M223 1546l180 260h215l181 -260h-178l-109 164h-4l-107 -164h-178z" />
<glyph unicode="&#x2dc;" horiz-adv-x="1021" d="M162 1548q0 260 209 260q49 0 90 -21.5t63.5 -47t51 -47t55.5 -21.5q82 0 82 131h147q0 -260 -209 -260q-49 0 -90 21.5t-63.5 47t-51 47t-55.5 21.5q-82 0 -82 -131h-147z" />
<glyph unicode="&#x2000;" horiz-adv-x="923" />
<glyph unicode="&#x2001;" horiz-adv-x="1847" />
<glyph unicode="&#x2002;" horiz-adv-x="923" />
<glyph unicode="&#x2003;" horiz-adv-x="1847" />
<glyph unicode="&#x2004;" horiz-adv-x="615" />
<glyph unicode="&#x2005;" horiz-adv-x="461" />
<glyph unicode="&#x2006;" horiz-adv-x="307" />
<glyph unicode="&#x2007;" horiz-adv-x="307" />
<glyph unicode="&#x2008;" horiz-adv-x="230" />
<glyph unicode="&#x2009;" horiz-adv-x="369" />
<glyph unicode="&#x200a;" horiz-adv-x="102" />
<glyph unicode="&#x2010;" horiz-adv-x="974" d="M188 496v176h598v-176h-598z" />
<glyph unicode="&#x2011;" horiz-adv-x="974" d="M188 496v176h598v-176h-598z" />
<glyph unicode="&#x2012;" horiz-adv-x="974" d="M188 496v176h598v-176h-598z" />
<glyph unicode="&#x2013;" horiz-adv-x="1462" d="M193 504v160h1077v-160h-1077z" />
<glyph unicode="&#x2014;" horiz-adv-x="1871" d="M193 504v160h1486v-160h-1486z" />
<glyph unicode="&#x2018;" horiz-adv-x="468" d="M96 1022l146 446h147l-100 -446h-193z" />
<glyph unicode="&#x2019;" horiz-adv-x="456" d="M102 1022l101 446h192l-145 -446h-148z" />
<glyph unicode="&#x201a;" horiz-adv-x="503" d="M74 -231l100 446h188l-145 -446h-143z" />
<glyph unicode="&#x201c;" horiz-adv-x="772" d="M96 1022l146 446h147l-98 -446h-195zM397 1022l146 446h147l-98 -446h-195z" />
<glyph unicode="&#x201d;" horiz-adv-x="757" d="M102 1022l101 446h192l-145 -446h-148zM403 1022l101 446h192l-145 -446h-148z" />
<glyph unicode="&#x201e;" horiz-adv-x="798" d="M74 -231l100 446h188l-145 -446h-143zM371 -231l100 446h186l-145 -446h-141z" />
<glyph unicode="&#x2022;" horiz-adv-x="845" d="M106 596q0 131 92.5 224t223.5 93t224 -92t93 -225t-93 -225t-224 -92t-223.5 93t-92.5 224z" />
<glyph unicode="&#x2026;" horiz-adv-x="1581" d="M156 0v215h206v-215h-206zM686 0v215h209v-215h-209zM1219 0v215h206v-215h-206z" />
<glyph unicode="&#x202f;" horiz-adv-x="369" />
<glyph unicode="&#x2039;" horiz-adv-x="735" d="M88 578l336 421h199l-336 -421l336 -420h-199z" />
<glyph unicode="&#x203a;" horiz-adv-x="735" d="M113 158l336 420l-336 421h198l336 -421l-336 -420h-198z" />
<glyph unicode="&#x205f;" horiz-adv-x="461" />
<glyph unicode="&#x20ac;" horiz-adv-x="1226" d="M90 512v125h113q-10 84 0 188h-113v127h135q63 227 252 372.5t438 145.5q49 0 101.5 -6t79.5 -12l26 -6l-47 -176q-80 20 -164 20q-170 0 -294.5 -92t-176.5 -246h574l-27 -127h-575q-10 -80 0 -188h542l-26 -125h-482q49 -160 175.5 -257t296.5 -97q47 0 94 7t69 15 l25 6l39 -176q-100 -35 -230 -35q-258 0 -445 149.5t-247 387.5h-133z" />
<glyph unicode="&#x2122;" horiz-adv-x="1953" d="M57 1309v137h781v-137h-314v-764h-153v764h-314zM901 545l72 901h143l213 -471q16 -37 27 -86h4q12 49 29 86l213 471h143l70 -901h-156l-41 538l2 62h-4l-195 -434h-125l-194 434h-4l2 -62l-43 -538h-156z" />
<glyph unicode="&#xe000;" horiz-adv-x="1035" d="M0 1035h1035v-1035h-1035v1035z" />
<glyph unicode="&#xfb01;" horiz-adv-x="1388" d="M88 883v153h172v51q0 117 39 197t103.5 115t118.5 48t112 13l94 -6v-164q-27 6 -74 6q-195 0 -194 -204v-56h704v-882h162v-154h-524v154h164v729h-506v-729h190v-154h-551v154h162v729h-172zM958 1243v203h209v-203h-209z" />
<glyph unicode="&#xfb02;" horiz-adv-x="1351" d="M88 883v153h172v31q0 115 42 199t113.5 128t151.5 64.5t174 20.5q96 0 192.5 -12.5t143.5 -24.5l47 -15v-1120q0 -74 23.5 -110.5t93.5 -36.5l47 2v-164q-41 -4 -88 -4q-127 0 -200.5 66.5t-73.5 234.5v1005q-66 20 -191 21q-121 0 -198.5 -58.5t-77.5 -189.5v-37h250 v-153h-250v-729h190v-154h-551v154h162v729h-172z" />
<glyph unicode="&#xfb03;" horiz-adv-x="2091" d="M88 883v153h172v51q0 117 39 197t103.5 115t118.5 48t112 13l94 -6v-164q-27 6 -74 6q-195 0 -194 -204v-56h506v51q0 117 38.5 197t102 115t118 48t111.5 13l97 -6v-164q-27 6 -76 6q-193 0 -193 -204v-56h703v-882h164v-154h-525v154h164v729h-506v-729h191v-154h-553 v154h164v729h-506v-729h190v-154h-551v154h162v729h-172zM1663 1243v203h209v-203h-209z" />
<glyph unicode="&#xfb04;" horiz-adv-x="2054" d="M88 883v153h172v51q0 94 27.5 166t66.5 110t94.5 61.5t98.5 29.5t88 6l92 -6v-164q-27 6 -72 6q-197 0 -196 -204v-56h506v31q0 115 41 199t112.5 128t152.5 64.5t175 20.5q96 0 191.5 -12.5t142.5 -24.5l47 -15v-1120q0 -74 24.5 -110.5t94.5 -36.5l47 2l-2 -164 q-39 -4 -86 -4q-127 0 -202 66.5t-75 234.5v1005q-63 20 -188 21q-121 0 -199 -58.5t-78 -189.5v-37h250v-153h-250v-729h191v-154h-553v154h164v729h-506v-729h190v-154h-551v154h162v729h-172z" />
</font>
</defs>
</svg>
